<?xml version="1.0" standalone="no"?>
<!DOCTYPE svg PUBLIC "-//W3C//DTD SVG 1.1//EN" "http://www.w3.org/Graphics/SVG/1.1/DTD/svg11.dtd" >
<svg xmlns="http://www.w3.org/2000/svg">
<metadata></metadata>
<defs>
<font id="waltographregular" horiz-adv-x="1366" >
<font-face units-per-em="2048" ascent="1638" descent="-410" />
<missing-glyph horiz-adv-x="559" />
<glyph horiz-adv-x="2048" />
<glyph horiz-adv-x="2048" />
<glyph unicode="&#xd;" horiz-adv-x="2048" />
<glyph unicode=" "  horiz-adv-x="559" />
<glyph unicode="&#x09;" horiz-adv-x="559" />
<glyph unicode="&#xa0;" horiz-adv-x="559" />
<glyph unicode="!" horiz-adv-x="348" d="M61 94q0 42 26 69t67 27q35 0 61.5 -26.5t26.5 -63.5q0 -34 -26 -61t-60 -27q-38 0 -66.5 24t-28.5 58zM90 297v518q0 24 1 88t1 111q0 92 -2 151q0 51 29 154q8 19 20 29t37 14q91 -23 111 -72q-17 -51 -28 -117.5t-14 -101.5t-7 -126t-5 -105q-8 -164 -8 -330 q0 -123 2 -197q-4 -17 -18 -26.5t-39.5 -17t-30.5 -9.5q-3 2 -13 8.5t-20 13.5t-16 15z" />
<glyph unicode="&#x22;" horiz-adv-x="413" d="M27 1356q7 21 22.5 32t28 13t31.5 2q21 0 45 -11.5t28 -35.5q-13 -96 -23.5 -149.5t-41.5 -168.5q-9 -6 -19 -6q-23 0 -32 27zM221 1356q7 21 22.5 32t28 13t31.5 2q22 0 46 -11.5t28 -35.5q-12 -93 -23 -146.5t-43 -171.5q-9 -6 -18 -6q-24 0 -33 27z" />
<glyph unicode="#" horiz-adv-x="1173" d="M49 659q14 49 53 68q19 8 56 8l55 -2q18 -1 106 -6l68 209q-96 9 -180 35q-40 11 -54 36t-6 54q9 28 35 51t56 29l-2 -6q-2 -8 12 -12q3 -1 26 -7q78 -23 162 -33l13 37q35 108 51 174q6 11 36 19t54 8l37 2q15 0 22 -4.5t4 -15.5v-3q-6 -21 -17.5 -61t-17.5 -61 q-18 -62 -32 -99q19 0 192 11l19 57q4 15 20.5 66.5t24.5 80.5q9 12 40 20.5t62 8.5q26 0 42 -6.5t15 -18.5l-40 -139l-19 -57q110 8 180 10q10 2 31 2q29 0 37 -8q6 -15 -6 -53q-10 -36 -29 -67t-39 -38q-61 10 -155 10l-66 -4l-57 -182l-17 -51q77 3 158 12q14 2 43 2 q27 0 40.5 -6t10.5 -22q-11 -17 -30.5 -57.5t-35 -61.5t-32.5 -21q-144 -4 -199 -4q-33 -124 -47 -209q-5 -20 -2 -28.5t23 -8.5q-25 -33 -41.5 -45t-49.5 -12q-43 0 -71.5 25t-22.5 59q20 108 51 215q-72 -2 -204 -2q-23 -93 -35 -205q-5 -31 -6 -33q-14 -51 -62 -51 q-33 0 -73 25q-18 9 -15 45q18 115 47 219q-94 0 -196 6q-41 38 -23 96zM459 719q57 -2 174 -2h26l17 49l57 180l-198 -10q-4 -12 -33 -92.5t-43 -124.5z" />
<glyph unicode="$" horiz-adv-x="1173" d="M70 326q0 65 19.5 109.5t53 65.5t66 29.5t70.5 8.5q83 0 143 -107q0 -23 -13.5 -39t-31.5 -16q-21 0 -33 24q-9 21 -13.5 29t-14 20.5t-23 16.5t-33.5 4h-18q-111 0 -111 -137q0 -40 31 -74.5t82.5 -57.5t100.5 -38t101 -25l9 561q-58 8 -100 18t-86 28t-71.5 42.5 t-45 63.5t-17.5 90q0 126 88.5 209.5t237.5 124.5l2 100q15 29 49 29h6q24 0 41.5 -12t22.5 -31q0 -10 -1 -31t-1 -31q48 8 108 11l2 32q3 6 6 17t5.5 17t8 11t13.5 5q76 -5 82 -31q0 -9 -1 -26.5t-1 -26.5q170 -19 237 -152q9 -18 9 -33q0 -37 -32.5 -67.5t-62.5 -30.5 q-8 0 -12 2q29 22 29 53q0 25 -25 39q-54 27 -145 41q-2 -127 -6 -405q69 -15 121 -37.5t97.5 -60.5t70 -98t24.5 -140q0 -112 -94 -213t-226 -160v-74q-12 -18 -17 -24t-13.5 -10.5t-20.5 -4.5h-8q-20 1 -32 5.5t-18 17t-7.5 21.5t-3.5 30q-33 -8 -72 -8h-31v-27 q-12 -18 -17 -24t-13.5 -10.5t-20.5 -4.5h-8q-24 0 -47 17q-13 18 -13 57v10q-69 16 -133 43t-120 65t-89.5 90t-33.5 110zM272 950q0 -64 47 -97t136 -50l4 338q-187 -58 -187 -191zM567 131q55 3 97 14v25q0 14 8 326l4 174q-70 12 -105 16q-1 -93 -2 -280.5t-2 -274.5z M571 786q70 -8 107 -12l8 395h-6q-46 0 -102 -6q-1 -50 -3.5 -177.5t-3.5 -199.5zM791 197q82 49 127 116t45 101q0 165 -168 225q-1 -74 -2 -222.5t-2 -219.5z" />
<glyph unicode="%" horiz-adv-x="1490" d="M90 965q0 78 22.5 131t94.5 125h-2q37 42 117 45q0 -2 3.5 -7t6.5 -6q41 35 112 35q49 0 109.5 -47t97.5 -121q121 9 250.5 63.5t224.5 135.5q13 10 31 10q31 0 71 -36t40 -66q0 -15 -6 -21q-142 -175 -494 -641q-263 -355 -424 -555q-17 -20 -41 -20q-34 0 -70 31.5 t-36 62.5q0 19 14 33q88 85 175.5 186t180 225t151 207t154.5 223q20 30 45.5 64.5t43.5 60.5q-127 -55 -277 -61q4 -18 4 -57q0 -122 -86 -203.5t-196 -81.5q-147 0 -231.5 79t-84.5 206zM215 961q0 -76 53.5 -119t134.5 -43q63 0 111.5 49t48.5 119q0 36 -8 63 q-74 10 -131 33l4 -2q-32 7 -62 35t-44 61l-7 -6q-31 -26 -49 -45.5t-34.5 -58t-16.5 -86.5zM418 1171q0 -5 8.5 -13.5t19.5 -12.5q20 -10 60 -17q-38 48 -72 48q-16 0 -16 -5zM803 299q0 32 6 65.5t23.5 73t45.5 71.5t76 58t111 35q39 16 90 16q69 0 127 -49.5t88.5 -122 t30.5 -147.5q0 -81 -45 -147.5t-113 -102t-139 -35.5q-147 0 -224 78t-77 207zM924 317q0 -79 46.5 -128.5t125.5 -49.5q66 0 127 55.5t61 127.5q0 73 -40 126.5t-89 53.5q-11 0 -35 -8l-123 -105q6 58 9 78q-40 -19 -61 -53t-21 -97z" />
<glyph unicode="&#x26;" horiz-adv-x="1423" d="M41 389q0 208 145 356q-90 96 -90 248q0 117 78.5 219t195 158.5t232.5 56.5q77 0 135 -18.5t88.5 -49.5t45 -64t14.5 -68q0 -26 -25 -43q-63 -38 -106 -47l49 94q6 21 -16 35.5t-59 20t-60 7.5t-37 2q-148 0 -258.5 -89t-110.5 -218q0 -101 35 -162q93 52 188 52 q97 0 149 -40.5t52 -78.5q0 -69 -54.5 -97t-166.5 -28q-107 0 -184 41q-74 -109 -74 -281q0 -114 101.5 -198t230.5 -84q122 0 224 43t136 131q10 69 53 213q-101 40 -146.5 89t-45.5 111q0 27 10 55.5t31 35.5q15 0 17 -30t7 -34q51 -42 94.5 -60.5t108.5 -27.5 q3 3 31 32.5t45.5 44t51.5 30.5t69 16q141 0 141 -166q0 -41 -26 -70.5t-67 -42.5t-76.5 -18.5t-68.5 -5.5h-12q-41 -153 -41 -416q0 -89 4 -225q-14 -13 -24.5 -17t-32.5 -4q-26 0 -55.5 22t-46.5 46q-37 56 -37 184q-146 -76 -351 -76q-234 0 -362.5 112.5t-128.5 303.5z M369 758q40 -21 104 -21q52 0 113 21q-65 28 -101 28q-65 0 -116 -28zM1159 625q20 -4 33 -4q28 0 61 16t33 35q0 13 -9 23t-22 10q-34 0 -64.5 -22t-31.5 -58z" />
<glyph unicode="'" horiz-adv-x="251" d="M35 942q0 12 3 25t17 27t37 14q66 0 102.5 -47.5t36.5 -92.5q0 -38 -24.5 -70.5t-56.5 -50.5t-57.5 -28t-33.5 -10q-9 0 -14.5 6.5t-5.5 15.5q0 24 25.5 48t25.5 34q0 16 -8.5 27.5t-19 18t-19 27.5t-8.5 56z" />
<glyph unicode="(" horiz-adv-x="407" d="M12 793q0 265 55.5 474t208.5 535l25 4q31 -19 37 -59q-90 -185 -137 -421t-47 -480q0 -138 22.5 -309.5t77 -349t127.5 -257.5l6 -8l4 -8l-10 -111l-70 -65l-43 24q-69 91 -122 236t-80.5 296t-40.5 278t-13 221z" />
<glyph unicode=")" horiz-adv-x="415" d="M12 1696l23 57q65 -13 120 -53.5t92 -96t66 -127.5t45.5 -142.5t27 -146t14 -132.5t3.5 -109q0 -117 -2 -200.5t-8 -209.5t-21.5 -226t-39.5 -208.5t-64.5 -200.5t-93.5 -163l-20 -2l-68 4l-51 88l10 70q54 51 97.5 152t70 215.5t44 245.5t24 236.5t6.5 194.5 q0 543 -213 707z" />
<glyph unicode="*" horiz-adv-x="657" d="M18 1139q0 15 64 84q11 8 18 8q10 0 40.5 -23.5t121.5 -101.5l-2 84q0 24 19 96l102 37l6 -2l6 -4q19 -8 19 -33q0 -14 -2 -22l-4 -17q-27 -84 -33 -141l43 22q34 17 174 76l31 -20l4 -29l-250 -149l223 -189l2 -22l-25 -37q-4 -2 -12 -2q-10 0 -14 2q-59 59 -201 172 l-12 -236q-3 -16 -14 -16q-29 0 -38.5 3.5t-11.5 14.5l-10 226l-24 -23q-11 -11 -32.5 -31.5t-30 -28.5t-24.5 -25t-34 -38q-14 -20 -37 -20q-34 20 -45.5 36t-11.5 37q0 26 8 39q56 56 186 146l-31 22q-16 4 -166 99q-2 2 -2 6z" />
<glyph unicode="+" horiz-adv-x="864" d="M53 801q0 28 12.5 51t32.5 29v-4q0 -7 6 -11t25 -10q93 -39 215 -39q4 86 4 135q0 35 -4 117q3 8 30 13t52 5h29q43 0 43 -14v-2q2 -25 2 -74q0 -62 -8 -168q157 21 225 23h2q6 2 20 2q21 0 29 -8q6 -15 6 -53q0 -90 -24 -105q-46 10 -109 10q-54 0 -160 -12v-27 q0 -116 33 -219q4 -16 4 -20q0 -33 -47 -33q-44 0 -80 16q-23 7 -29 29q-22 105 -22 242h-25q-113 0 -202 37q-30 11 -45 36t-15 54z" />
<glyph unicode="," horiz-adv-x="294" d="M23 -6q0 25 4 44t15 39t35.5 31t61.5 11t65 -21.5t41.5 -52.5t20 -57.5t6.5 -44.5q0 -72 -43.5 -124t-113.5 -52q-65 0 -84 53h10q48 0 86.5 30.5t38.5 75.5q0 27 -23 35q-11 0 -16 -8q-16 -16 -39 -16q-24 0 -44.5 18t-20.5 39z" />
<glyph unicode="-" horiz-adv-x="688" d="M72 514q0 29 8.5 51.5t23.5 28.5v-6q0 -2 0.5 -4t1.5 -3.5t3.5 -3t4.5 -2.5l6 -3t7 -3q68 -37 156 -37q47 0 139.5 16t140.5 17q4 2 15 2q15 0 20 -8q6 -15 6 -53q0 -90 -18 -105q-37 11 -82 11l-240 -25q-84 0 -149 37q-43 22 -43 90z" />
<glyph unicode="." horiz-adv-x="225" d="M23 37q0 42 25.5 69t66.5 27q35 0 61.5 -26.5t26.5 -63.5q0 -34 -26 -61t-60 -27q-38 0 -66 23.5t-28 58.5z" />
<glyph unicode="/" horiz-adv-x="1124" d="M23 6q0 17 10 25q178 215 409 532t371 527l135 221q9 6 21 6q32 0 84.5 -45.5t52.5 -75.5q0 -8 -4 -10q-106 -127 -216 -272.5t-185.5 -251.5t-239 -340t-273.5 -390q-11 -14 -30 -14q-36 0 -85.5 30.5t-49.5 57.5z" />
<glyph unicode="0" horiz-adv-x="1376" d="M39 629q0 182 96 336.5t256 242.5t344 88q162 0 301.5 -89t219 -233.5t79.5 -305.5q0 -130 -50.5 -252.5t-136.5 -214t-206.5 -146.5t-253.5 -55q-123 0 -242 50.5t-208 135t-144 201.5t-55 242zM172 686q0 -135 71 -254t190 -189.5t255 -70.5q139 0 254 73.5 t178.5 193.5t63.5 257q0 112 -42 196.5t-130 156.5q-31 23 -89 59.5t-65 36.5h-18v-19q27 -29 39 -42.5t34 -43.5t31.5 -60.5t9.5 -64.5q-72 81 -165.5 136t-186.5 55q-33 0 -82 -18t-61 -21q-6 0 -6 4q0 3 5.5 14t6.5 17h-14q-60 0 -114.5 -46t-89 -112.5t-55 -136 t-20.5 -121.5z" />
<glyph unicode="1" horiz-adv-x="399" d="M6 993q0 6 2 8q68 32 118.5 106t57.5 165q13 31 54 31q28 0 61 -12t39 -29q2 -218 17 -632.5t18 -580.5q-16 -26 -26 -33.5t-32 -7.5q-62 0 -86 15q-14 18 -14 73q-3 161 -14.5 458t-14.5 419q-27 -39 -67 -39q-67 0 -111 51q-2 2 -2 8z" />
<glyph unicode="2" horiz-adv-x="1228" d="M37 80q5 52 57.5 90.5t112.5 58.5l440 420q43 40 88.5 91.5t90 127t44.5 129.5q0 52 -47 87t-102 40q-12 2 -37 2q-87 0 -175.5 -33t-154.5 -87q-13 -12 -19.5 -45.5t-19 -58.5t-43.5 -25q-57 5 -57 100q0 27 4 51q6 56 33 101.5t66.5 74.5t91.5 48.5t104.5 27.5t108.5 8 q23 0 69 -4q122 -13 200.5 -94.5t78.5 -218.5q0 -57 -29.5 -123.5t-72.5 -125t-106 -127.5t-115.5 -118.5t-117 -110.5t-94.5 -92q43 -6 154 -16q51 -4 135.5 -30.5t165.5 -26.5l43 2q40 2 73 11.5t51.5 19t55 31.5t62.5 36q22 -4 22 -53q-62 -76 -160.5 -132t-185.5 -59 l-555 25q-33 -1 -102.5 -33.5t-104.5 -32.5q-23 1 -38 20t-15 44z" />
<glyph unicode="3" horiz-adv-x="983" d="M41 287q0 48 3.5 67t14.5 19q34 0 62 -45q123 -189 350 -189q44 0 92.5 12.5t97 38.5t80 74t31.5 109q0 80 -27.5 116.5t-126.5 81.5q-88 -36 -237 -36q-96 0 -163.5 31.5t-67.5 74.5q0 38 35 65t85.5 37.5t84 14.5t53.5 4q99 0 198 -27q44 6 78 49t49 90.5t15 86.5 q0 61 -31.5 104t-86 64.5t-112 30.5t-125.5 9q-89 0 -162 -26q-28 -13 -42 -22.5t-16.5 -14t-2.5 -10.5q0 -43 55 -86q-6 -1 -21.5 -5t-25.5 -4q-45 0 -66.5 28.5t-21.5 74.5q0 57 25 106t67 62q115 39 215 39q81 0 151 -9.5t136.5 -34.5t114.5 -64t78.5 -101.5t33.5 -143.5 q-4 -78 -48.5 -167.5t-112.5 -112.5q58 -31 89 -53.5t57 -58t35 -83t9 -121.5q0 -86 -30 -152t-76.5 -105t-112 -63.5t-128.5 -33t-134 -8.5q-79 0 -149 20t-118 51.5t-83 70.5t-51.5 76t-16.5 69zM276 653q59 -16 103 -16l108 10q-8 1 -36 7.5t-52.5 10t-48.5 3.5 q-47 0 -74 -15z" />
<glyph unicode="4" horiz-adv-x="833" d="M29 707q0 131 52 279.5t134 273.5q11 19 17 23.5t20 4.5t22.5 -11t8.5 -28q0 -36 -37 -125q-74 -197 -74 -362q0 -82 21 -150q122 -90 217 -90q13 0 41 4l2 76q1 18 0.5 80.5t1 120t5 135t13 140t24 118.5t40 87.5t59.5 31.5q46 0 81.5 -29t56.5 -74.5t34.5 -110.5 t18 -128.5t4.5 -136.5q0 -63 -2 -104t-8 -85t-17.5 -72.5t-30.5 -56.5t-47.5 -48t-67.5 -36q4 -93 8 -149.5t16 -134t32 -144.5q2 -4 2 -14q0 -20 -11 -40t-32 -28h-12q-44 0 -90 16t-54 40q-22 75 -22 325q0 72 2 105h-27q-128 0 -216 34.5t-167 124.5q-18 65 -18 138z M602 948q0 -232 10 -389q54 63 54 289q0 257 -54 311q-10 -41 -10 -211z" />
<glyph unicode="5" horiz-adv-x="1085" d="M41 334q0 79 46 122.5t118 43.5q73 0 151 -44t138 -128q0 -25 -29.5 -42.5t-61.5 -17.5q-25 0 -36 11q-51 58 -111 100.5t-100 42.5q-56 0 -56 -84q0 -50 52 -92t123.5 -64.5t133 -34.5t95.5 -12q96 0 169 24.5t113.5 60.5t66 83.5t33 86.5t7.5 77q0 61 -25.5 106.5 t-66 72t-101 42.5t-120 21.5t-134.5 5.5q-53 0 -151 -4q-17 -1 -51.5 -20.5t-48.5 -20.5l-29 -2q-24 0 -43 14q-17 162 -17 209q0 121 44 260q-39 8 -66 38.5t-37 67.5l14 13l66 12q3 0 159 3t350 9t279 13h15q19 0 28 -7q25 -18 41 -52.5t19 -71.5q-12 -12 -31 -15 q-44 -5 -238.5 -10t-211.5 -6l-234 -2q-43 -48 -43 -232q0 -46 4 -92q44 29 258 29q79 0 147.5 -9.5t140.5 -37.5t122 -73.5t82.5 -123t32.5 -180.5q0 -88 -35 -161.5t-88.5 -120t-120 -79t-125.5 -46t-109 -13.5q-68 0 -155 21.5t-172 60t-143 104.5t-58 144z" />
<glyph unicode="6" horiz-adv-x="1009" d="M35 377q0 265 124.5 513t342.5 398q51 35 94 35q29 0 29 -23q0 -28 -23 -51q-112 -109 -182 -213q-102 -149 -161.5 -329.5t-59.5 -360.5q0 -43 10.5 -89.5t31 -90t55.5 -71t79 -27.5q53 0 106 41q-14 55 -24 159q-5 53 -11 146q4 64 18 130t43 134t68.5 120.5t99 86 t130.5 33.5q50 0 86.5 -23t55 -62.5t26.5 -82t8 -91.5q0 -142 -78 -287.5t-229 -273.5l18 -61l2 -14q0 -43 -30.5 -80t-65.5 -37q-44 0 -66 59l-12 41q-79 -31 -155 -31q-69 0 -125.5 21.5t-94 59t-63 89t-36.5 109.5t-11 123zM631 362q0 -23 5 -63.5t13 -48.5 q89 114 135.5 208.5t46.5 192.5q0 46 -13.5 111t-43.5 65q-23 0 -40 -16.5t-24.5 -32.5t-15.5 -41q-38 -108 -50.5 -182t-12.5 -193z" />
<glyph unicode="7" horiz-adv-x="1032" d="M33 1229q0 26 34.5 51t69.5 25h15q89 -7 271 -52.5t277 -50.5l38 -2t29 -1.5t15 -0.5q4 0 9 1t6 1q5 7 17.5 27t19 27t20.5 18.5t33.5 15.5t46.5 4q29 0 49.5 -21.5t20.5 -49.5q0 -72 -29 -93q-32 -22 -86 -36q-140 -203 -223 -448t-107 -503q-3 -43 -35 -89t-67 -46 q-38 0 -62 19t-24 57q0 392 358 991q-219 0 -369 31q-26 4 -73.5 12t-85 13.5t-70.5 9.5q-7 1 -19 -16t-23.5 -34.5t-16.5 -17.5q-13 0 -26 68.5t-13 89.5z" />
<glyph unicode="8" horiz-adv-x="1021" d="M45 367q0 42 20.5 81.5t52.5 71t82.5 64t98 56.5t111.5 52q-146 55 -231 129.5t-85 161.5q0 145 124 238.5t296 93.5q121 0 227 -41t170 -114t64 -161q0 -54 -28 -100t-82 -82t-113.5 -63.5t-141.5 -55.5q47 -15 76.5 -25t73 -28t70.5 -35.5t58.5 -44t49 -55.5 t29.5 -69.5t12 -86.5q0 -155 -124.5 -246.5t-324.5 -91.5q-218 0 -351.5 97t-133.5 254zM193 365q0 -79 92 -141t262 -62q36 0 80 11t87.5 31.5t73 57.5t29.5 82q0 33 -11 64t-26.5 55t-43.5 48.5t-49 40.5t-58 36t-56.5 29.5t-55.5 26.5q-10 5 -15 7q-71 -32 -120 -58.5 t-95.5 -62t-70 -77t-23.5 -88.5zM233 977q0 -49 79.5 -111.5t201.5 -124.5q59 29 98.5 49.5t84 48.5t71 52t44 53t17.5 57q0 70 -75 139.5t-176 69.5h-15q8 -8 27.5 -28.5t26.5 -28.5t17.5 -22.5t14.5 -25.5t4 -22v-6q-128 109 -217 109q-18 0 -39 -17.5t-35 -17.5 q-4 0 -4 6q0 8 9 35q-34 -9 -60 -30.5t-39.5 -45.5t-22 -53t-10.5 -49t-2 -37z" />
<glyph unicode="9" horiz-adv-x="888" d="M33 872q0 102 41 191t105.5 147.5t144 91.5t157.5 33q115 0 201 -57t128 -146.5t42 -197.5q0 -263 -125 -510.5t-342 -400.5q-51 -35 -94 -35q-4 2 -4 12q0 22 19 62t40 61q158 172 250 393t92 449q0 117 -66 187.5t-155 70.5q-157 0 -230 -88t-73 -271 q0 -80 51.5 -156.5t108.5 -76.5q34 0 61 2.5t48.5 5.5t39 12t30 15t24.5 21t19 24.5t16 31t13.5 35t14.5 41.5l4 15q9 37 72 49q-5 -78 -28.5 -142t-65.5 -114.5t-108.5 -78.5t-152.5 -28q-75 0 -140.5 53.5t-101.5 134.5t-36 164z" />
<glyph unicode=":" horiz-adv-x="276" d="M23 152q0 51 32.5 85.5t83.5 34.5q46 0 78 -32q35 -35 35 -80t-31 -76q-33 -39 -80 -39q-48 0 -83 30.5t-35 76.5zM23 496q0 51 32.5 85.5t83.5 34.5q48 0 80.5 -32t32.5 -82q0 -45 -31 -76q-27 -35 -80 -35q-49 0 -83.5 29.5t-34.5 75.5z" />
<glyph unicode=";" horiz-adv-x="317" d="M45 -6q0 25 4 44t15 39t36 31t62 11t65 -21.5t41.5 -52.5t20 -57.5t6.5 -44.5q0 -72 -44 -124t-114 -52q-65 0 -84 53h10q48 0 86.5 30.5t38.5 75.5q0 28 -22 35q-11 0 -16 -8q-16 -16 -39 -16q-24 0 -45 18t-21 39zM51 532q0 53 32.5 87t84.5 34q44 0 77.5 -33.5 t33.5 -78.5q0 -43 -33.5 -78t-75.5 -35q-48 0 -83.5 30t-35.5 74z" />
<glyph unicode="&#x3c;" horiz-adv-x="604" d="M59 655q17 29 46.5 52.5t61 41.5t87 69t115.5 126q12 15 32.5 61t38.5 60q33 -19 52 -49.5t16 -63.5q-3 -40 -32 -82.5t-63 -72.5t-79.5 -71.5t-69.5 -70.5q33 -36 111 -97.5t126 -114t54 -109.5q0 -40 -18.5 -58t-44.5 -18q-40 0 -103 94q-45 66 -119 130t-135.5 109 t-75.5 64z" />
<glyph unicode="=" horiz-adv-x="1095" d="M63 434q0 28 17 51t43 29v-6q0 -6 6 -9t23 -8q2 0 4 -0.5t4 -1.5q114 -36 264 -36q80 0 237.5 15.5t241.5 16.5q8 2 27 2q24 0 35 -8q8 -13 8 -53q0 -35 -8.5 -66t-22.5 -38q-59 10 -139 10q-67 0 -203 -12.5t-207 -12.5q-142 0 -254 37q-37 11 -56.5 36t-19.5 54z M88 705q0 28 15.5 50.5t41.5 28.5v-6q0 -2 0.5 -3.5t2 -3t3.5 -2.5t5.5 -2t6.5 -1.5t8.5 -2.5t10.5 -3q117 -37 264 -37q79 0 236 16t240 17q8 2 24 2q24 0 35 -8q8 -13 8 -54q0 -35 -8.5 -66t-22.5 -38q-59 10 -137 10q-66 0 -200.5 -12t-204.5 -12q-145 0 -254 36 q-37 11 -55.5 36.5t-18.5 54.5z" />
<glyph unicode="&#x3e;" horiz-adv-x="604" d="M59 334q6 57 54 109.5t126 114t111 97.5q-24 29 -69.5 70.5t-79.5 71.5t-63 72.5t-32 82.5q-3 33 16 63.5t52 49.5q18 -14 39 -60t33 -61q60 -75 115.5 -126t87 -69t60.5 -41.5t46 -52.5q-14 -19 -75.5 -64t-135.5 -109t-119 -130q-63 -94 -102 -94q-26 0 -45 18t-19 58z " />
<glyph unicode="?" horiz-adv-x="727" d="M43 1112q0 102 87 179t226 77q54 0 98 -6.5t92.5 -28t81.5 -57t55 -98.5t22 -148q0 -52 -35.5 -110t-85.5 -111t-100.5 -106.5t-86 -114.5t-35.5 -117q0 -48 38 -97.5t92 -49.5h14l6 -41l-18 -25l-13 -4q-31 -8 -47 -8q-91 0 -155 71t-64 154q0 85 35 159t84.5 126 t99 98.5t84.5 94.5t35 95q0 179 -203 179q-198 0 -198 -140q0 -37 90 -82q-41 -20 -78 -20q-55 0 -88 42.5t-33 88.5zM297 41q0 42 25.5 69t66.5 27q35 0 61.5 -26.5t26.5 -63.5q0 -34 -26 -61t-60 -27q-38 0 -66 23.5t-28 58.5z" />
<glyph unicode="@" horiz-adv-x="1353" d="M115 565q0 126 50 258t130.5 237t192.5 172.5t227 67.5q113 0 204.5 -36t153.5 -99t104 -151t61 -188t19 -214q0 -29 -5.5 -62t-22 -72.5t-41 -70.5t-67.5 -52t-97 -21q-74 0 -129 37q-78 -78 -182 -78q-142 0 -217.5 88.5t-75.5 245.5q0 34 11 72.5t38 80.5t67.5 75.5 t107 55t147.5 21.5l-3 -2q13 8 29 8q81 0 121.5 -84.5t40.5 -220.5q0 -103 -35 -180q24 -21 55 -21q68 0 92.5 49t24.5 148q0 132 -31.5 233.5t-87 163t-126.5 92.5t-154 31q-130 0 -230.5 -80.5t-154 -216.5t-53.5 -303q0 -223 107 -346t319 -123q93 0 207.5 35t168.5 104 q47 27 80 27q27 0 43.5 -13t16.5 -32l-7 -21q-38 -78 -105 -132.5t-145 -80t-143 -35.5t-129 -10q-266 0 -421.5 172.5t-155.5 470.5zM547 627q0 -209 164 -209q52 0 92 43q-43 68 -66.5 158.5t-23.5 175.5q0 25 4 49q-4 -5 -11 -10.5t-8 -6.5q-151 -74 -151 -200zM813 817 q6 -112 53 -237q6 30 6 55q0 63 -11.5 142t-33.5 79q-14 0 -14 -39z" />
<glyph unicode="A" horiz-adv-x="1112" d="M27 709q0 67 75 88q62 315 209.5 501.5t345.5 186.5q69 0 125 -28.5t94.5 -76t68 -118t47 -144t28.5 -165t15 -170.5t5 -171q51 33 69.5 51t18.5 39q0 11 -2 17q33 0 49.5 -15t16.5 -38q0 -53 -53 -93q-61 -46 -99 -67q-4 -148 -4 -195v-321q0 -14 -5 -35.5t-11 -22.5 q-66 -8 -84 -8q-39 0 -76 13q-23 90 -86.5 210.5t-138.5 221.5q-89 -14 -113 -17q-160 11 -266 68v-21l-4 -428q-4 -14 -12 -23t-21.5 -12.5t-24.5 -4.5t-28 -1h-76q-14 0 -23.5 13.5t-9.5 29.5q0 9 2 15q1 34 4 179t3 224q0 115 8 199q-47 67 -47 119zM262 545 q121 -86 299 -86q-158 178 -285 217q-12 -86 -14 -131zM297 793q23 -3 43 -9q84 -36 181 -116.5t190 -190.5q88 20 157 47q6 177 6 201q0 612 -231 612q-107 0 -201 -152t-145 -392zM774 397q35 -45 82 -116v49q0 26 6 94q-49 -17 -88 -27z" />
<glyph unicode="B" horiz-adv-x="1484" d="M-100 915q0 24 8 48q132 163 389 321q325 201 606 201q54 0 112.5 -9.5t117.5 -31t105.5 -51.5t75.5 -74t29 -96q0 -120 -36 -209.5t-105 -173.5q100 -58 179 -163t79 -208q0 -101 -35.5 -184t-98 -139.5t-141 -98t-172.5 -64.5t-183.5 -33.5t-182.5 -10.5q-38 0 -72 2 t-79.5 8t-82.5 19.5t-69.5 32.5t-51 51t-18.5 73l21 326q-5 5 -24.5 26t-29.5 32.5t-24 29t-20.5 29t-6.5 18.5q2 21 12 43t19 34.5t29 38t26 33.5q0 11 1.5 53.5t1.5 69.5q0 216 -78 252q-93 -65 -134 -101t-83 -100q-1 -1 -6 -11.5t-8 -15t-10.5 -9.5t-16.5 -5 q-20 0 -31.5 13.5t-11.5 33.5zM377 1171q30 -34 48 -77.5t24 -74.5t13 -89t11 -84q79 28 185 45.5t202 17.5q136 0 221 -32q55 52 89 126t34 144q0 55 -28 94.5t-74 59t-93 28t-98 8.5q-172 0 -364 -71q-1 -1 -17 -7t-28 -11t-32 -13t-34.5 -16t-29 -16.5t-22 -16.5 t-7.5 -15zM461 389l2 -84q49 29 140.5 45.5t160.5 16.5q18 0 28 -0.5t25.5 -3.5t23 -11.5t7.5 -21.5q0 -15 -57.5 -26.5t-127 -21t-129.5 -40t-63 -78.5q0 -21 27 -35t71 -19t69 -6.5t50 -1.5q67 1 145 14.5t162.5 44t152 73.5t111.5 109t44 144q0 30 -2 48.5t-12 47 t-28.5 49.5t-55 46.5t-89.5 48.5q-79 -79 -129 -109q-29 -17 -109.5 -57t-95.5 -45q-17 -7 -79.5 -20.5t-133 -27.5t-82.5 -17q-26 -12 -26 -62zM479 696l2 -75q28 -7 56 -7q53 0 228.5 60.5t207.5 89.5q-73 24 -180 24q-93 0 -236 -45q-50 -17 -78 -47z" />
<glyph unicode="C" horiz-adv-x="1253" d="M31 635q0 83 22 174.5t63.5 185.5t109 179t151.5 151.5t198 105.5t242 39q210 0 325 -106.5t115 -286.5q0 -71 -26 -126.5t-70.5 -88t-99 -49t-117.5 -16.5q-94 0 -157.5 58.5t-63.5 139.5q0 72 64.5 128.5t138.5 56.5h8q-56 -50 -79.5 -86.5t-23.5 -87.5q0 -35 26.5 -68 t78.5 -33q34 0 67 8t65.5 27t52.5 56.5t20 88.5q0 72 -24.5 122.5t-70.5 77.5t-100 38.5t-125 11.5q-121 0 -237 -62.5t-198 -160t-132.5 -219.5t-50.5 -238q0 -124 45.5 -230.5t119 -175.5t163.5 -108t182 -39q242 0 458 97q43 -35 43 -74q0 -15 -8 -47 q-248 -150 -544 -150q-113 0 -225 50.5t-202.5 139.5t-147 224.5t-56.5 292.5z" />
<glyph unicode="D" horiz-adv-x="1798" d="M-236 1286q0 197 474 197q260 0 620 -129q68 -25 147 -62.5t169.5 -91t175.5 -114.5t164 -136t138 -153t94.5 -167.5t35.5 -176.5q0 -108 -44.5 -200t-120 -155.5t-175.5 -108.5t-210 -66t-224 -21q-102 0 -299 30q-4 -17 -25 -86q-50 -8 -72 -8l-47 4q-14 17 -25 47 t-15 48.5t-13 64.5q-269 158 -362 264q-101 105 -101 178q0 47 68 95q70 52 167 85t253 60l4 84q24 242 69 281q52 -42 68.5 -89.5t21.5 -130.5q4 -73 11 -129h28q52 0 116 -5t149.5 -21t153.5 -41.5t115.5 -71t47.5 -104.5q0 -40 -46 -91t-95 -51q-20 0 -48 8t-42 19 q10 11 45.5 44t42.5 48q-31 37 -167.5 72t-256.5 35q-38 0 -54 -2l2 -449q72 -45 197 -45q56 0 109.5 3t125.5 13.5t132.5 27.5t122.5 48t105 72t70 103t27 137q0 104 -51.5 205.5t-132.5 183.5t-189.5 157t-215 128.5t-216.5 95.5q-366 139 -739 139q-93 0 -168 -19 q-47 -11 -47 -24q0 -6 17.5 -12t38 -10t22.5 -5q10 -7 10 -16t-8 -17q-2 0 -19 -1t-30 -1q-99 0 -99 33zM100 426q0 -19 13 -40.5t44.5 -49.5t44 -37.5t50.5 -38.5q51 -41 120.5 -74.5t137.5 -48.5l18 398q-62 -5 -103.5 -9t-96.5 -10.5t-91 -14.5t-70 -18.5t-50.5 -25 t-16.5 -31.5z" />
<glyph unicode="E" horiz-adv-x="1067" d="M18 395q0 156 65 281t191 178q-45 50 -76 114t-34 126q4 100 54.5 178.5t130.5 124.5t173 69t193 23q116 0 231 -39q42 -13 67 -62t25 -106q0 -50 -22.5 -92.5t-65.5 -42.5q-10 0 -26 3.5t-21 4.5q15 12 35 51.5t20 67.5q0 6 -2.5 10.5t-16.5 14t-42 22.5q-76 27 -178 27 q-63 0 -127 -17.5t-118.5 -49t-89 -82.5t-34.5 -112q0 -56 17.5 -105t50.5 -71q99 27 198 27q92 0 168 -23q57 -17 73.5 -35t16.5 -63q0 -59 -46 -82.5t-185 -23.5q-146 0 -237 37q-10 -3 -23 -13q-184 -58 -184 -319q0 -108 62.5 -189.5t156 -121t198.5 -39.5 q89 0 179 40.5t153 104.5q45 45 62 45q11 0 14.5 -19t3.5 -67q0 -60 -49 -109q-77 -77 -156.5 -110t-191.5 -33q-120 0 -229 31t-195.5 89t-137.5 150.5t-51 206.5zM537 823l108 -10q44 0 103 16q-27 15 -74 15q-24 0 -48.5 -3.5t-52.5 -10t-36 -7.5z" />
<glyph unicode="F" horiz-adv-x="1013" d="M39 1370q0 53 35.5 79t75.5 26q42 0 81 -12t75.5 -38t59 -45.5t58.5 -54.5q30 1 70 3.5t45 2.5q252 12 397 12q42 0 74.5 -4.5t66 -16.5t52 -38t18.5 -65q0 -44 -41 -71.5t-86 -27.5q-26 0 -39 8q12 11 34 23.5t35 21t13 17.5q0 10 -7.5 16.5t-23 9t-26.5 3t-31 0.5 q-60 0 -230.5 -13.5t-230.5 -13.5h-2q86 -175 96 -479l105 -2q21 0 109 -2t96 -2q30 0 49.5 -38t21.5 -69q0 -26 -7.5 -34t-29.5 -15q-11 16 -24 16h-25q-192 0 -293 8q0 -138 -11.5 -246.5t-51.5 -289.5q-8 -38 -30 -78.5t-54 -52.5q-64 -25 -103 -27q-20 0 -29 24.5 t-1 43.5q40 83 67 236t35 251t10 162q-76 15 -127 49q-26 17 -54 54.5t-32 70.5q21 -4 88 -26.5t121 -28.5q-15 300 -106 481q-293 27 -293 172zM115 1370q0 -26 43.5 -41.5t81.5 -15.5h16q-14 34 -44 66t-60 32q-11 0 -24 -9t-13 -32z" />
<glyph unicode="G" horiz-adv-x="1200" d="M43 408q0 168 58 331t162 296t239 235t297.5 158.5t328.5 56.5q150 0 260.5 -78.5t110.5 -206.5q0 -50 -31.5 -86.5t-78.5 -36.5q-32 0 -59.5 23.5t-35.5 54.5q50 -12 62 -12q41 0 41 53q0 54 -69.5 95.5t-160.5 41.5q-239 0 -457 -124t-339 -302q-74 -109 -117 -246.5 t-43 -283.5q0 -88 49 -151.5t124.5 -92.5t166.5 -29q103 0 198.5 48t157.5 138t62 199q0 25 -2 37q-200 -90 -471 -90q-35 0 -79.5 14t-83 48.5t-38.5 79.5q0 52 38 92t100 62.5t131.5 34t140.5 11.5q151 0 288 -82q15 5 78 45q0 4 -11 19t-11 20q7 15 18 15q6 0 8 -2 q66 -32 66 -97q0 -78 -90 -139q20 -76 20 -154q0 -137 -71 -242.5t-188.5 -160.5t-258.5 -55q-112 0 -203.5 27.5t-161 82.5t-107.5 145t-38 208zM397 598q44 -8 135 -8q46 0 62 2q12 1 54 4t51 3.5t39.5 3.5t42 5t34 5.5t40 7.5t36.5 10q-42 26 -97.5 39.5t-84.5 13.5 q-268 0 -312 -86z" />
<glyph unicode="H" horiz-adv-x="1241" d="M23 610q0 58 31 111.5t81 79.5l4 6v520l-4 70q9 24 46 39.5t75 15.5q45 0 53 -22l-8 -633q200 -75 424 -244l4 -2q104 13 191 35h2q21 4 34 10l2 6v205q0 317 -2 565v72q18 17 52 28t65 11q43 0 55 -21v-620q0 -131 -2 -205q58 20 96 37.5t67.5 42.5t33.5 53 q39 -16 46 -26q9 -12 9 -35q0 -14 -1 -23t-5 -21t-12.5 -22t-22.5 -20q-112 -67 -207 -105l-4 -6q-8 -309 -16 -489v-72q0 -12 -84 -12q-70 0 -76 8q-4 4 -6 41q0 188 -233 407l-6 2q-112 -28 -209 -28q-135 0 -201 8l-4 -393q0 -45 -64 -45q-80 0 -82 18l-4 469l-4 6 q-35 18 -59 49q-55 55 -55 129zM295 522q29 -2 80 -2q71 0 162 8q-106 70 -238 129zM870 436l84 -92l2 119q-43 -16 -86 -27z" />
<glyph unicode="I" horiz-adv-x="530" d="M-23 1397q0 86 146 86q24 0 83.5 -19.5t84.5 -52.5q76 16 151 57q38 11 64 11q29 0 45 -13q-27 -69 -84 -119t-115 -63q33 -244 33 -493q0 -97 -4.5 -198t-14 -242.5t-12.5 -203.5q97 14 129 15q4 2 15 2q15 0 20 -8q6 -15 6 -54q0 -89 -18 -104q-34 10 -82 10l-76 -8v-2 l-4 2l-160 -16q-86 0 -149 36q-43 22 -43 91q0 28 9 50.5t24 28.5v-6q0 -3 0.5 -5t2.5 -3.5t4 -2.5t7 -3t8 -4q61 -34 133 -37l-4 4q35 437 35 660q0 199 -31 464q-4 0 -22 -1t-27 -1q-64 0 -109 38.5t-45 103.5z" />
<glyph unicode="J" horiz-adv-x="1226" d="M90 -43q0 72 54 127.5t144 88t196 49t221 16.5q37 0 129 -9q18 75 35.5 210.5t17.5 238.5q0 61 -0.5 103.5t-2 106.5t-5.5 110t-9.5 100t-15.5 91t-23 69.5t-31.5 48.5t-41.5 16q-43 0 -89 -110t-74 -251.5t-28 -242.5q0 -224 103 -283q-32 -8 -66 -8q-3 0 -7.5 1t-6.5 1 q-50 9 -86.5 65.5t-52 130t-15.5 152.5q0 127 20 249.5t58 226.5t102.5 167.5t145.5 63.5q45 0 78 -11t57 -35t38.5 -48.5t33.5 -65.5q84 -183 84 -684q0 -58 -20 -224t-38 -229q82 -31 131.5 -75t55.5 -99q-91 43 -224 70q-33 -84 -79 -153.5t-108.5 -128.5t-147 -92.5 t-181.5 -33.5q-63 0 -121 20.5t-99 52t-71.5 69.5t-45.5 74.5t-15 64.5zM201 -61q0 -15 15 -43t42.5 -60.5t77.5 -56t110 -23.5q123 0 211.5 99t141.5 256q-71 8 -144 8q-251 0 -352.5 -43t-101.5 -137z" />
<glyph unicode="K" horiz-adv-x="1118" d="M20 655q0 113 70 174v347l-2 36v183q2 41 78 41q28 0 51.5 -18t24.5 -54l18 -485q164 -7 344 -115q101 80 240 248q39 45 93 150t54 161q0 41 -35 41q-14 0 -22.5 -2.5t-17 -14t-11.5 -32.5l-24 45q0 21 25 57.5t69 36.5q38 0 78.5 -33.5t40.5 -74.5q0 -192 -99.5 -371.5 t-265.5 -296.5q198 -166 285 -418q15 -45 27 -125t12 -139q0 -72 -17 -72q-28 0 -44.5 16.5t-20.5 36.5q-37 176 -143 334t-246 283q-149 -68 -303 -68l8 -350l6 -168q-17 -76 -103 -76q-77 0 -88 52l-10 139l-2 459q-19 9 -28 13.5t-21 13.5t-16.5 20t-4.5 26zM266 772 l6 -143q108 6 201 53q-77 53 -80 55q-57 35 -117 35h-10z" />
<glyph unicode="L" horiz-adv-x="983" d="M33 133q0 91 58.5 164.5t125.5 73.5q66 0 160 -23q40 108 61 273t21 278q0 99 -14.5 191.5t-46.5 212.5t-33 124q0 39 11 51.5t48 12.5q39 0 69.5 -14t50 -35.5t34 -55.5t21.5 -64.5t11 -74t5 -72t1 -69.5q0 -194 -36.5 -376.5t-106.5 -410.5q369 -180 512 -370 q12 -15 12 -27q0 -35 -94 -35q-18 0 -51.5 9.5t-60.5 25.5q-57 33 -185 138t-184 133q-43 -104 -103.5 -156.5t-148.5 -52.5q-59 0 -98 40t-39 109zM127 145q0 -31 13 -52t38 -21q45 0 92.5 39.5t71.5 121.5q-48 31 -106 31q-38 0 -73.5 -33.5t-35.5 -85.5z" />
<glyph unicode="M" horiz-adv-x="1546" d="M117 494q0 179 19 357.5t42 285.5q37 170 72 249q79 179 221 179q51 0 91 -36t54 -91l258 -957q19 -57 21 -58q1 -1 2 -1q4 0 13 27q7 20 12 34l276 973q12 42 60.5 64t95.5 22q49 0 84 -40t52 -104t24.5 -115.5t9.5 -100.5q4 -104 6 -290q1 -57 1 -118q1 -138 -3 -298 q-4 -231 -19 -335q-14 -106 -43 -106q-34 0 -62 62.5t-30 101.5l-37 1140l-20 2q-8 -52 -45 -201.5t-87.5 -345.5t-62.5 -245q-7 -31 -18.5 -68t-32 -87.5t-44 -89.5t-55.5 -67t-65 -28q-32 0 -54 12.5t-44 40.5q-61 95 -111.5 236.5t-81.5 268.5t-78 292t-96 284l-18 -2 q-139 -591 -156 -1316q0 -18 -13 -33t-30 -15q-24 0 -42.5 32t-30 85.5t-19 110.5t-11 120.5t-4.5 101.5t-1 67z" />
<glyph unicode="N" horiz-adv-x="1155" d="M10 113q0 27 4 39q21 74 46.5 186.5t41.5 190.5t50.5 250t46.5 233q-45 134 -45 266q0 64 27 100.5t67 36.5q46 0 62.5 -66.5t16.5 -162.5t3 -111q0 -2 2 -2q45 -100 116.5 -234.5t157.5 -276.5t170 -240q84 -97 134 -97h1q47 155 47 328q0 206 -59 416t-160 448 q0 18 19 56q375 -360 375 -891q0 -533 -205 -609q-75 3 -199.5 132t-246 328t-183.5 386q-15 -221 -44.5 -382t-94.5 -386q-5 -19 -9 -28.5t-12 -23.5t-22.5 -20t-34.5 -6q-29 0 -50.5 45t-21.5 95zM229 1288q0 -21 19 -61q10 48 10 80q0 26 -10 26q-13 0 -16 -9t-3 -36z " />
<glyph unicode="O" horiz-adv-x="1140" d="M33 643q0 118 30 238.5t90 229t141 193.5t190.5 135t230.5 50q98 0 176.5 -48.5t130.5 -131.5q91 32 170 32q62 0 121 -37t59 -100q0 -26 -10 -43.5t-25 -17.5q-14 0 -22.5 8.5t-14.5 28.5q-21 69 -114 69q-56 0 -119 -26q37 -90 37 -193q0 -36 -10 -94q14 -12 24 -60 t10 -83q0 -85 -15.5 -178t-46 -189t-80 -182t-112.5 -153.5t-150.5 -107.5t-186.5 -40t-184 44t-142.5 115.5t-98.5 163.5t-60 188t-19 189zM227 627q0 -105 20.5 -193t63 -158.5t114.5 -110.5t167 -40q103 0 202 99.5t162.5 245t79.5 290.5q-48 -103 -123 -167.5 t-178 -64.5q-192 0 -192 226q0 135 102 271.5t252 225.5q-35 61 -81.5 95t-96.5 34q-111 0 -205.5 -64t-156 -170.5t-96 -241t-34.5 -277.5zM700 725q0 -58 18.5 -87.5t49.5 -29.5q65 0 129 119.5t64 261.5q0 74 -21 156q-103 -82 -171.5 -198t-68.5 -222z" />
<glyph unicode="P" horiz-adv-x="1058" d="M27 1348q122 122 340 122q105 0 223.5 -29t232 -85t205.5 -129t148.5 -171t56.5 -202q0 -114 -95.5 -211t-245 -151t-310.5 -54q-42 0 -101 8q-2 -33 -2 -120q0 -130 8 -289q-1 -37 -30.5 -70.5t-67.5 -44.5q-5 0 -9 0.5t-7.5 2.5t-6 3.5t-5.5 6t-5 7t-6.5 10t-7.5 11.5 q-13 63 -16 86q-4 50 -4 107l4 278v45q-98 30 -189.5 102t-91.5 150q0 70 52.5 125t152.5 84q1 0 31 8t36 8q4 122 7 148q4 47 16.5 82t48.5 71q22 -14 42 -59.5t22 -73.5l14 -170q125 0 177 -37t52 -92q0 -65 -61 -71q6 15 6 28q0 32 -37 45t-133 13l4 -252q47 -8 98 -8 q60 0 138 14.5t159.5 43.5t137 83.5t55.5 122.5q0 100 -62.5 185.5t-155 140t-202 93.5t-200 55.5t-152.5 16.5q-123 0 -260 -10zM125 758q0 -79 194 -129v211q-61 0 -96 -6q-98 -19 -98 -76z" />
<glyph unicode="Q" d="M27 655q0 198 50.5 338t203.5 324q42 51 107.5 82.5t125.5 40.5l16 -27q-38 -48 -38 -117v-14q-48 -41 -81.5 -75t-76.5 -92t-69.5 -119t-45 -150t-18.5 -191q0 -252 125 -405q26 47 73 82t99 45q54 8 80 8q57 0 110 -14.5t104.5 -45.5t85.5 -57t87 -71q84 82 131 204 t47 258q0 150 -57.5 313t-145.5 271.5t-170 108.5h-4q-86 -3 -86 -66q0 -56 59.5 -115t126.5 -59l-35 -65q-14 -7 -32 -7t-50.5 6t-39.5 7q-59 8 -119 92t-60 129q0 58 21 100t58.5 65.5t82.5 34.5t99 11q60 0 130.5 -38.5t139 -113.5t124.5 -173.5t91 -231t35 -273.5 q0 -172 -62 -315.5t-168 -243.5q79 -61 142 -82q27 -10 61 -10q39 0 53 14v-12q0 -37 -21.5 -72t-49.5 -36q-12 -2 -37 -2q-70 0 -133 29.5t-133 82.5q-123 -69 -258 -69q-210 0 -364.5 91t-234 252.5t-79.5 372.5zM424 160q121 -76 281 -76q68 0 137 29q-4 3 -19 15.5 t-20.5 17t-18.5 15t-21 15.5t-19.5 12.5t-22 13t-21.5 9.5q-79 31 -155 31q-97 0 -121 -82z" />
<glyph unicode="R" d="M68 1176q0 60 58.5 111.5t144 83t185.5 54t179.5 32t130.5 9.5q74 0 148 -14.5t145.5 -47t127 -79t89 -116t33.5 -152.5q0 -152 -82.5 -275.5t-202.5 -195.5q6 -8 17 -23q43 -57 66 -91t60 -99t75 -154t83 -213q6 -15 6 -29q0 -20 -10 -33.5t-25 -13.5q-28 0 -53 45 q-117 206 -204 321t-212 220q-163 -61 -364 -61h-41q-2 -66 -2 -170q0 -127 10 -222v-10q0 -41 -23 -65.5t-53 -24.5t-51 21.5t-24 62.5q-13 114 -13 189q0 18 10 243q-51 16 -77.5 68.5t-26.5 118.5q0 69 30 121.5t81 56.5v98q0 91 -4 148l2 20q1 34 27.5 54t58.5 20 q27 0 45 -14.5t18 -43.5q6 -114 6 -198v-66q107 -1 219.5 -38.5t208.5 -100.5q118 50 193.5 137t75.5 191q0 62 -36 110.5t-86.5 75t-113 43.5t-107 22t-77.5 5q-90 0 -206 -18t-210 -52.5t-98 -73.5v-12q0 -15 6 -26t12.5 -17.5t26.5 -22.5q-33 -8 -66 -8q-54 0 -82 28.5 t-28 70.5zM420 662l2 -44q32 -4 65 -4q61 0 119 8.5t74 22.5q-41 49 -193 49q-35 0 -63 -4z" />
<glyph unicode="S" horiz-adv-x="1323" d="M70 319q0 70 33 125.5t86.5 86.5t114 47t122.5 16q138 0 235 -37.5t185 -150.5q0 -29 -34 -49.5t-71 -20.5q-28 0 -43 12q-78 69 -154.5 106.5t-183.5 37.5q-40 0 -75.5 -7.5t-69.5 -24.5t-54 -51t-20 -81q0 -48 41 -90t100 -68.5t127 -45.5t121 -27.5t82 -8.5 q113 0 203 28.5t144 71.5t90 97.5t49.5 102t13.5 89.5q0 74 -33.5 124.5t-90 76t-130 40t-155 20.5t-162.5 13t-154.5 22.5t-130 43.5t-90 81.5t-33.5 131.5q0 109 63 197.5t168 143t233.5 83.5t266.5 29q122 0 214 -48t136 -137q9 -15 9 -32q0 -48 -55 -89.5t-97 -41.5 l-12 2q-4 0 -4 4q0 2 2 4q43 55 43 82q0 8 -2 12q-9 25 -98.5 50.5t-208.5 25.5q-72 0 -147.5 -14t-150.5 -44t-123 -87t-48 -132q0 -49 27 -82.5t73.5 -49t109 -26t132 -14t143.5 -13.5t143.5 -22.5t132 -43.5t109 -74.5t73.5 -116t27 -168.5q0 -87 -32 -163t-84.5 -128 t-116.5 -92.5t-133 -64t-128.5 -35t-107.5 -11.5q-52 0 -116 11.5t-134 32.5t-135.5 54.5t-118 74.5t-84.5 96.5t-32 115.5z" />
<glyph unicode="T" horiz-adv-x="1030" d="M29 1360q0 35 34.5 65.5t77.5 30.5h9q12 0 12 -14q0 -11 -4 -15q-45 -48 -45 -73q0 -20 55 -62q53 -43 180 -83t262 -64q131 128 307 198t361 70q129 0 129 -67q0 -75 -34.5 -138.5t-89.5 -106t-125 -73t-139.5 -44t-133.5 -13.5q-95 0 -189 18q-84 -139 -132 -307 t-48 -332q0 -260 143 -475q5 -8 13.5 -20t12 -17.5t6.5 -12.5t3 -13q0 -21 -26 -21q-69 6 -121 68q-93 119 -151 295t-58 325q0 268 186 551q-172 57 -346 152q-149 81 -149 178zM823 1118q25 -2 74 -2q248 0 338 148q-37 0 -139 -21q-161 -40 -273 -125z" />
<glyph unicode="U" horiz-adv-x="1298" d="M47 741q0 188 49 366.5t140 319.5q31 25 45 25q16 0 16 -27q0 -22 -27 -120q-67 -234 -67 -478q0 -86 4 -160t15.5 -153.5t30 -144t48.5 -123.5t70 -98.5t97 -63t126 -23.5q80 0 166.5 49.5t157.5 143.5q-56 127 -76.5 267.5t-20.5 363.5q0 54 12.5 141.5t36.5 186 t67.5 168t96.5 69.5q34 0 62.5 -16t49.5 -40.5t37 -65t26.5 -78t18 -90.5t11 -92t5.5 -94t2.5 -84.5t0.5 -74.5q0 -141 -39 -290.5t-112 -276.5q52 -98 106 -189q33 -26 33 -65q0 -33 -22 -58.5t-52 -25.5q-23 0 -47 18q-77 109 -119 178q-176 -204 -409 -204 q-106 0 -190 30t-142 86.5t-99 131t-64.5 171.5t-33.5 198.5t-10 221.5zM977 834q0 -262 43 -400q70 177 70 395q0 205 -6.5 314.5t-12.5 128t-16 18.5q-31 0 -54.5 -193t-23.5 -263z" />
<glyph unicode="V" horiz-adv-x="1056" d="M35 1057q0 28 8.5 82t26.5 123.5t53.5 132.5t81.5 90l16 -17q0 -64 -14 -170.5t-14 -148.5q10 -187 49.5 -348.5t92 -266t113.5 -180t113.5 -108.5t91.5 -33q42 0 105.5 144t115 329.5t70.5 321.5q5 40 21.5 105.5t45.5 128.5t56 63q40 0 51.5 -15.5t11.5 -60.5 q-4 -226 -50 -453t-139.5 -435.5t-219.5 -336.5q-18 -4 -66 -4q-49 0 -65 4q-137 76 -231 169q-294 291 -321 784q-3 49 -3 100z" />
<glyph unicode="W" horiz-adv-x="1466" d="M16 449q0 269 124.5 523t334.5 398q65 45 96 45q29 0 29 -22q0 -16 -29 -45q-178 -182 -284.5 -431t-106.5 -499q0 -51 8 -96.5t26 -88.5t53.5 -68.5t84.5 -25.5q73 0 111 41q-37 169 -37 338q0 98 27.5 181.5t69.5 136.5t92.5 91t94 54t76.5 16q44 0 78.5 -26.5 t53 -68.5t27.5 -85.5t9 -85.5q0 -140 -80 -282.5t-233 -272.5q41 -117 182 -117q48 0 100.5 25.5t106 73.5t101.5 124t85.5 170t59.5 219t22 263q0 176 -71.5 350t-196.5 281l4 14q56 0 109 -43q147 -117 242.5 -328t95.5 -407q0 -180 -47.5 -335t-122 -258.5t-167.5 -178 t-183.5 -108.5t-169.5 -34q-63 0 -120 26t-92 62t-55.5 66.5t-23.5 46.5q-94 -37 -170 -37q-66 0 -119.5 23t-89 61t-60 90t-35 108t-10.5 116zM610 410q0 -79 11 -88q92 110 129.5 217.5t37.5 236.5q0 139 -47 139q-34 0 -61.5 -65t-41.5 -155.5t-21 -166.5t-7 -118z" />
<glyph unicode="X" horiz-adv-x="1351" d="M0 1350v8q1 53 65.5 88t143.5 35q100 0 145 -56q169 -210 332 -544l109 166q107 170 135 226q28 57 55 136l8 18l19 15q9 5 20.5 9.5t24.5 8.5t18 6l72 -80v-36q-6 -31 -9 -44.5t-23 -63t-50.5 -101.5t-93 -146.5t-148.5 -212.5q-6 -9 -25 -35.5t-28 -41.5 q42 -86 74 -146t76.5 -134t86.5 -129t97 -111.5t115 -100.5q2 -10 79.5 -61.5t102.5 -51.5q0 -9 -5.5 -14.5t-9.5 -5.5q-10 -4 -34 -4q-59 0 -191 45q-82 31 -155 86t-134 131t-109.5 153t-100.5 177q-161 -241 -246.5 -374t-101 -160.5t-27.5 -55.5q-1 -10 -13 -16.5 t-28 -6.5q-9 0 -25 4l-43 37l4 27l6 18q4 14 8 51t14 72t34 68l331 508q-7 14 -37.5 78.5t-39 83t-36 74t-40.5 78.5t-38 67.5t-43 70.5t-42 58t-47 57q-58 65 -105 65q-31 0 -41.5 -22t-21.5 -82q-45 9 -64.5 29.5t-19.5 81.5z" />
<glyph unicode="Y" horiz-adv-x="739" d="M70 698q0 201 95 396.5t247 363.5q4 4 10 9.5t8.5 7.5t6 4t7.5 2q33 0 33 -41q0 -51 -76 -170q-85 -150 -132.5 -288t-47.5 -286q0 -34 8.5 -69t34 -68t64.5 -39l22 94q8 32 20 74t37.5 119.5t53 148.5t67 150t79 136.5t89 95.5t97.5 38q29 0 51.5 -16t35.5 -47 t21.5 -61.5t11.5 -75t4 -71t1 -65.5q0 -124 -29.5 -240.5t-85 -213t-143 -161t-195.5 -79.5q-78 -341 -78 -584q0 -25 -17.5 -55.5t-43.5 -34.5q-44 13 -88.5 54.5t-44.5 78.5q0 53 32 225.5t72 331.5q-61 23 -106 60t-71 83t-38 94t-12 99zM500 506q92 36 157.5 129 t94 203.5t28.5 228.5q0 50 -18 102l-12 -8q-60 -55 -118.5 -199t-89 -262.5t-42.5 -193.5z" />
<glyph unicode="Z" horiz-adv-x="1417" d="M6 23q0 2 1 4.5t1 3.5q11 87 180 151q53 59 150 164t149 162t130.5 152t130 170t110 176.5t105.5 207.5q-104 17 -228 49.5t-216.5 52t-174.5 19.5q-188 0 -188 -57q0 -17 22 -41t49 -41q-32 0 -61.5 6t-53.5 23.5t-24 44.5q0 52 34.5 93.5t85.5 64.5t102 35t93 12 q92 0 178 -16.5t143 -38t137.5 -49t146.5 -42.5q19 33 86 58.5t118 25.5q37 0 72 -30t35 -76q0 -53 -39.5 -83t-103.5 -30q-12 0 -26 3t-28 3q-234 -560 -682 -1012q10 -2 73.5 -13t78.5 -13q248 -42 356 -51q80 -6 172 -7h17q35 0 65.5 7.5t48.5 16t52.5 27t58.5 29.5l8 -2 q19 -3 19 -30l-3 -25q-66 -72 -166.5 -124t-185.5 -52h-8l-743 41h-7q-32 0 -98 -26.5t-92 -26.5l-12 2q-24 5 -46 31.5t-22 50.5zM1159 1307h31q23 0 46.5 5t23.5 11t-14.5 11t-33.5 5h-2q-9 0 -27 -11t-24 -21z" />
<glyph unicode="[" horiz-adv-x="583" d="M53 -158q0 16 17 32t32.5 23.5t44.5 20.5l19 1653q-26 11 -35 15.5t-30 16.5t-29.5 23.5t-8.5 24.5q0 14 11 19t37 7q21 1 123.5 19t187.5 18q27 0 74 -12q3 -4 15 -17.5t20 -23t15 -23t7 -24.5q0 -13 -34.5 -26t-63.5 -15q-43 -2 -85 -2.5t-59 -1.5q-18 0 -26 -2 q-4 -4 -4 -320q0 -206 1.5 -526t3 -556.5t1.5 -240.5h14q17 -1 58.5 -1.5t84.5 -2.5q29 -2 64 -15t35 -26q0 -14 -9.5 -29.5t-28.5 -36.5t-20 -22q-47 -12 -73 -12q-85 0 -188 18t-124 19q-25 2 -36 7t-11 19z" />
<glyph unicode="\" horiz-adv-x="1247" d="M49 1176q0 6 2 10q6 28 56 66t83 38l11 -2q8 0 8 -6q97 -133 211 -274t200 -241t271.5 -313.5t312.5 -361.5q6 -9 6 -20q0 -9 -2 -13q-6 -32 -44 -71t-66 -39h-6q-18 4 -23 18q-167 229 -420.5 532.5t-417.5 481.5l-180 184q-2 2 -2 11z" />
<glyph unicode="]" horiz-adv-x="583" d="M53 -123q0 13 35 26t64 15q43 2 84.5 2.5t58.5 1.5q19 0 27 2q4 4 4 320q0 206 -2 526t-3.5 556.5t-1.5 240.5h-14q-17 1 -58.5 1.5t-84.5 2.5q-29 2 -64 15t-35 26q0 14 9.5 29.5t28.5 36.5t20 22q47 12 74 12q85 0 187.5 -18t123.5 -19q25 -2 36 -7t11 -19 q0 -16 -17 -32t-32.5 -23.5t-44.5 -20.5l-19 -1653q26 -11 35 -15.5t30 -16.5t29.5 -23.5t8.5 -24.5q0 -14 -11 -19t-36 -7q-21 -1 -124 -19t-188 -18q-26 0 -73 12q-1 1 -20 22t-28.5 36.5t-9.5 29.5z" />
<glyph unicode="^" horiz-adv-x="675" d="M31 1214q0 20 8 31q20 -10 53 -10q42 0 69.5 20.5t59.5 65.5q13 17 21.5 33t12.5 28t17 50q3 26 23 41.5t45 15.5q46 0 61 -43q3 -11 8.5 -32.5t9.5 -34.5t14 -33.5t24 -40.5q10 -14 49.5 -31t68.5 -17q21 0 32 -16t11 -39q0 -27 -11.5 -50.5t-31.5 -23.5 q-45 0 -97.5 17.5t-78.5 40.5q-5 4 -20.5 17t-21.5 18.5t-15 16.5t-14 22q-47 -75 -99 -109q-33 -21 -57 -30t-59 -9q-34 0 -58 33.5t-24 68.5z" />
<glyph unicode="_" horiz-adv-x="686" d="M0 -10h686v-72h-686v72z" />
<glyph unicode="`" horiz-adv-x="483" d="M4 1726v13q0 61 51 61q21 0 56 -14q2 -1 45.5 -22.5t95.5 -46t113.5 -47.5t97.5 -28l14 9q-19 -133 -74 -133q-55 26 -113 54t-89.5 43.5t-62.5 29.5t-50 20.5t-33 7.5h-6q-9 0 -26 -10q-19 24 -19 63z" />
<glyph unicode="a" horiz-adv-x="598" d="M16 303l4 39q8 -2 29 -2h68q95 201 153 289l99 121l6 24q6 10 22 10h13q20 0 38 -20t21 -43q3 -9 16 -49.5t24 -79t15 -62.5q1 -10 7 -50t7 -49t5.5 -42.5t5.5 -44t4.5 -39t4.5 -42t3 -38.5t2.5 -43t1 -41.5t0.5 -46.5q0 -89 -6 -114q-11 -7 -22 -7q-51 0 -93 97l-8 118 h-65q-43 0 -77.5 1t-35.5 1q-10 0 -12 -2q-14 -5 -24.5 -26t-26 -69.5t-23.5 -69.5l-22 -60q-16 -16 -50 -16q-7 0 -21.5 2.5t-19.5 3.5q-39 42 -39 100q0 73 58 176q0 27 -16 48.5t-46 25.5zM301 350q18 -2 57 -2q42 0 60 2q0 126 -29 176q-19 -5 -46.5 -65.5t-41.5 -110.5 z" />
<glyph unicode="b" horiz-adv-x="632" d="M-18 565q3 15 26 47q30 36 74 59.5t97 32.5t90 12t85 3q86 0 147.5 -55.5t61.5 -133.5q0 -53 -59 -102q55 -12 89 -54t34 -102q0 -139 -76.5 -209.5t-202.5 -70.5q-7 1 -76 3t-102 13q-27 -10 -61 -10q-38 0 -48 20v2q-16 96 -16 209q0 47 2 74q0 46 16 120t37 132 q-46 -18 -82 -18q-16 0 -36 28zM190 147q27 29 74.5 50.5t95.5 21.5l31 -2v-10q0 -13 -37 -37q-2 -1 -5 -3l-5 -3q-49 -26 -55 -35q200 0 200 133q0 60 -159 60q-90 0 -129 -13zM205 434q215 31 215 96q0 34 -14 49.5t-58 16.5h-20q-41 0 -90 -12q-1 -5 -11 -41 q-19 -78 -22 -109z" />
<glyph unicode="c" horiz-adv-x="684" d="M31 274q0 65 19.5 129.5t57.5 121.5t91 101t125 69.5t153 25.5q168 0 168 -113q0 -19 -10 -61q-47 -19 -70 -19q-61 0 -104 64q-139 -22 -210 -113t-71 -211q0 -69 42.5 -106t142.5 -37q23 0 95.5 27.5t117.5 27.5q75 0 75 -67q0 -113 -321 -113q-301 0 -301 274z" />
<glyph unicode="d" horiz-adv-x="761" d="M6 633q0 67 105 88q25 2 67 2q296 0 477 -234q39 -61 51.5 -98.5t12.5 -93.5q0 -83 -59.5 -154t-150 -110t-183.5 -39h-13q-12 -27 -55 -51h-16q-74 0 -74 82v8q-137 88 -137 174q0 41 24 82q32 -43 99 -74q-2 23 -2 61q0 242 116 242h15q10 -70 10 -229v-129 q31 -13 86 -13q199 0 199 115q0 73 -89 197q-147 178 -385 178h-24l-45 -64l-27 37q-2 8 -2 23z" />
<glyph unicode="e" horiz-adv-x="624" d="M23 133q0 13 2.5 28.5t9 36t11 33.5t14.5 39t14 37q-1 4 -9 22.5t-8 30.5q0 9 5 23.5t6 17.5q42 16 53 17l49 112q-5 3 -20.5 10t-23.5 11t-21.5 11.5t-20.5 13.5t-15.5 13.5t-12 16t-3.5 17.5q0 16 12.5 22t40.5 8q25 1 141.5 21t213.5 20q34 0 84 -14q1 -2 22.5 -25.5 t32 -41t10.5 -33.5q0 -14 -39 -28.5t-71 -16.5q-33 -2 -164 -7q-21 0 -31 -2q-24 -24 -24 -86q0 -20 18 -20h152l28 -4q13 -18 13 -60q0 -46 -23 -49q-111 -6 -231 -6q-9 0 -13 -8q-13 -56 -49 -137q3 0 29.5 5.5t79 13.5t110.5 13q50 5 68 5t34.5 -20.5t16.5 -41.5 q0 -24 -12 -31q-178 -139 -316 -139q-80 0 -121.5 50t-41.5 122z" />
<glyph unicode="f" horiz-adv-x="677" d="M53 657l2 15q65 5 199.5 23t216.5 22h47h36.5t29 -1t21 -1t16.5 -2t11.5 -2t9.5 -3.5t6.5 -4t7.5 -5.5t8 -6q21 -16 26 -53v-4q0 -47 -108 -47q-20 0 -51.5 2t-38.5 2q-56 0 -183 -27q-29 -56 -41 -141l203 6q68 3 86 6q18 -18 18 -51q0 -44 -22 -72q-39 -4 -104 -4h-54 q-87 0 -153 -20q-25 -31 -25 -109q0 -25 6 -73t6 -70q0 -21 -2 -29q-58 -14 -80 -14q-40 0 -53 26q-18 26 -18 107q0 182 71 430q-64 10 -84 55q-10 30 -10 45z" />
<glyph unicode="g" horiz-adv-x="690" d="M18 272q0 95 44.5 182t110 144t138 91t131.5 34q154 0 154 -102q0 -41 -25 -93l-4 -4q-34 -22 -88 -22q19 36 19 53q0 16 -25 16q-13 0 -55 -10q-112 -26 -183 -101.5t-71 -191.5q0 -139 160 -139q20 0 40.5 2t51 11t53 23.5t39 42.5t16.5 66q0 29 -96 29q-79 0 -127 -86 q-31 10 -39 23t-8 41q0 31 13.5 55t39 38t51 23.5t61.5 13t58.5 4.5t52.5 1q67 0 107.5 -39t40.5 -94q0 -139 -97.5 -214t-275.5 -75q-152 0 -219.5 68.5t-67.5 209.5z" />
<glyph unicode="h" horiz-adv-x="626" d="M2 428q0 2 1 4.5t1 3.5v19q54 -33 94 -43l15 252l32 16q18 6 41 6q16 0 42 -6t36 -14q0 -5 -4 -37q-10 -87 -10 -170v-94q59 -11 131 -11q27 0 47 4l-18 260l-4 50q9 36 47 57h28q44 0 76 -14q0 -35 2 -60q0 -7 1 -24t1 -27l14 -252q0 -32 13 -108q12 -78 12 -119 q0 -89 -22 -113q-30 -10 -48 -10q-26 0 -53 15.5t-31 39.5l-8 152v8h-6q-54 -4 -70 -4q-38 0 -108 6q4 -49 4 -162q0 -30 -10 -37t-53 -12q-46 0 -80 25l-17 59q-12 34 -12 164q-20 8 -42.5 30t-29.5 44q-12 42 -12 102z" />
<glyph unicode="i" horiz-adv-x="346" d="M-76 1024q0 67 58 140.5t152 124t188 50.5q67 0 116 -22.5t58 -56.5q1 0 3.5 1t4.5 1q34 0 74 -30t40 -81q0 -74 -73.5 -155.5t-168.5 -132t-163 -50.5q-73 0 -129 18q-6 -7 -14.5 -18.5t-13 -17t-13.5 -11t-20 -6.5q-16 3 -32.5 29.5t-19.5 58.5q0 5 6 35 q-53 70 -53 123zM25 1024q4 -4 8 -4q6 0 10 4q26 36 160 164v2q0 6 -4 10q-74 -15 -121 -64.5t-53 -111.5zM86 119q0 52 6 215q12 169 35 348q3 14 12 14q36 -1 55 -16.5t25 -39t8 -67.5q2 -68 11.5 -240t9.5 -263q0 -72 -64 -72q-25 0 -57 12q-17 5 -27.5 42t-13.5 67z M147 950q0 -3 6.5 -9.5t10.5 -6.5h45q40 0 92 13t101.5 36.5t83.5 62t34 82.5q0 14 -1 21t-5.5 15.5t-16 12t-30.5 3.5q-152 0 -320 -230z" />
<glyph unicode="j" horiz-adv-x="397" d="M-98 -254q0 213 215 428v401q0 17 3.5 32t6 23.5t11 21t11 15.5t14.5 15.5t13 13.5q69 -123 98 -387q95 71 158 105q2 0 2 -2q0 -7 -2 -11q-41 -99 -147 -198q4 -62 4 -66q0 -443 -62 -555q-28 -66 -66 -94.5t-112 -28.5q-147 0 -147 287zM-84 1024q0 50 35 106t90 102 t128.5 76.5t143.5 30.5q67 0 116 -22.5t58 -56.5q1 0 4 1t5 1q34 0 74 -30t40 -81q0 -74 -73.5 -155.5t-168.5 -132t-163 -50.5q-74 0 -129 18q-5 -6 -14.5 -18.5t-14 -17.5t-13.5 -10.5t-20 -6.5q-16 3 -32 29.5t-19 58.5q0 5 6 35q-53 70 -53 123zM16 1024q4 -4 9 -4 q6 0 10 4q26 36 160 164v2q0 5 -5 10q-74 -15 -121 -64.5t-53 -111.5zM41 -252q0 -58 10 -108.5t35 -57.5q27 11 31 457q-19 -23 -21 -29q-55 -95 -55 -262zM139 950q0 -3 6.5 -9.5t10.5 -6.5h45q40 0 92 13t101.5 36.5t83.5 62t34 82.5q0 14 -1 21t-5.5 15.5t-16 12 t-30.5 3.5q-152 0 -320 -230z" />
<glyph unicode="k" horiz-adv-x="626" d="M35 676l39 33q17 14 35 14q36 0 58.5 -65t22.5 -173q0 -38 -2 -61q107 35 165.5 82.5t158.5 191.5l-2 -2q3 11 18 11q16 0 41 -28t25 -42v-4q-29 -75 -69.5 -129.5t-80.5 -87.5t-125 -92q9 -16 25 -36.5t48 -52t83 -56.5t109 -34q30 -17 30 -65q0 -17 -4 -37q-2 -2 -8 -7 t-8 -7q-23 -23 -37 -31q-59 6 -111 26t-97.5 54.5t-81 71t-79.5 90.5l11 -217q-37 -27 -82 -27q-36 0 -60 8q-10 36 -10 90q0 35 2 51q-10 182 -10 310z" />
<glyph unicode="l" horiz-adv-x="462" d="M35 223q0 104 44.5 246t86.5 221q15 30 63 45q22 0 28.5 -10t6.5 -35q-1 -61 -17 -118t-40 -147.5t-39 -209.5v-8q0 -14 6.5 -24.5t15.5 -10.5q13 0 31.5 6t52.5 20t54 21q8 3 31 13t37.5 15t23.5 5q22 0 22 -47q0 -66 -88.5 -142.5t-163.5 -76.5q-155 0 -155 237z" />
<glyph unicode="m" horiz-adv-x="960" d="M37 295q0 133 22 246q18 84 29 104q21 39 68 39q14 0 24.5 -7t17 -16t12 -25t7.5 -25.5t5 -26.5t3 -19q7 11 28.5 35t55 55.5t78 54.5t84.5 23q20 0 33.5 -13t21 -38t10.5 -49.5t5 -59.5q4 -124 8 -153q13 35 22.5 57.5t34.5 67.5t50.5 72.5t66.5 50t86 22.5 q42 0 74 -34.5t35 -71.5q3 -66 6 -136q2 -68 3 -194v-23q0 -110 -9 -182q-10 -79 -31 -80h-4q-23 -1 -43 9q-21 10 -33.5 33.5t-20.5 41.5t-12.5 48.5t-5.5 37.5t-2 25q-4 70 -4 233q0 110 6 131q-45 -18 -78 -99t-61.5 -203t-38.5 -150q-4 -13 -20.5 -21t-32.5 -8h-1 q-29 1 -54 47q-25 48 -39.5 115t-25 143.5t-14.5 129t-4 73.5q-39 -26 -60.5 -42.5t-52.5 -52t-47 -75.5q-17 -39 -29 -105q-12 -61 -11 -137v-12q0 -37 -2 -59t-8.5 -45.5t-22 -34.5t-39.5 -12q-25 -2 -40.5 10.5t-25.5 46.5q-10 31 -17 118.5t-7 139.5z" />
<glyph unicode="n" horiz-adv-x="679" d="M35 166q0 63 16 172t50.5 210t74.5 101q27 0 74 -65.5t112.5 -170.5t106.5 -155q3 -3 6.5 -7.5t5 -6.5t2.5 -2q13 0 13 53q0 67 -8 123t-17 90.5t-30 102.5t-35 120l-7 25v8q0 43 21 43q23 0 59 -37.5t72.5 -98.5t63 -156.5t26.5 -195.5q0 -103 -44 -188.5t-114 -85.5 q-41 0 -88.5 59.5t-81.5 131t-63.5 131t-38.5 59.5q-8 0 -14 -23q-3 -11 -9.5 -140t-11.5 -163q0 -1 -2 -9.5t-2.5 -11.5t-3 -12t-4 -13.5t-4.5 -12.5t-6 -12t-7 -9.5t-9 -8.5t-10.5 -5t-12.5 -2q-23 0 -40 18t-25 45.5t-11.5 52t-3.5 46.5z" />
<glyph unicode="o" horiz-adv-x="743" d="M20 342q0 106 55.5 194.5t146 137.5t192.5 49q65 0 108 -16q51 -22 51 -41q0 -22 -43 -27h2q82 0 140 -39q25 -16 43 -68t18 -96q0 -91 -46 -171.5t-120 -135t-165.5 -87t-184.5 -36.5q-3 -9 -10 -18.5t-11 -14t-18.5 -17t-17.5 -15.5q-62 80 -62 135v4q-78 130 -78 262z M139 299q0 -34 8 -61q68 175 133.5 266.5t149.5 116.5q2 0 19.5 5.5t27.5 6.5q-32 -6 -90 -23q-121 -29 -184.5 -118.5t-63.5 -192.5zM279 180h26q56 0 128.5 36.5t128.5 101t56 131.5q0 32 -21.5 48.5t-59.5 16.5q-77 0 -136 -83.5t-122 -250.5zM477 633q4 2 10 2 q-6 0 -10 -2z" />
<glyph unicode="p" horiz-adv-x="745" d="M18 135q0 45 23 98l109 -38q17 298 86 421q-14 2 -43 2q-27 0 -119 -18h-6q-13 0 -13 14q0 21 41 68q58 39 150 39q228 0 350.5 -110.5t122.5 -319.5q0 -137 -95 -218t-235 -81q-39 0 -94 8q-4 -306 -19 -410q-23 -19 -34 -25.5t-27 -6.5q-35 0 -63 32q-9 46 -9 187 q0 35 1 119t1 147l-55 27q-6 2 -20.5 7t-20.5 8t-15 9.5t-12.5 16.5t-3.5 24zM287 608q1 -36 7.5 -192t6.5 -254q80 -12 119 -12q69 0 106 47t37 122q0 43 -13.5 83t-44 80t-86.5 73t-132 53z" />
<glyph unicode="q" horiz-adv-x="774" d="M23 342q0 391 507 391q46 0 84.5 -15.5t59.5 -39.5q20 -30 20 -45t-6 -21q-42 17 -76 17q-94 0 -172.5 -16t-141.5 -49.5t-98.5 -90t-35.5 -131.5q0 -64 20.5 -105t63 -61t88 -27t115.5 -8q0 23 -3.5 53.5t-3.5 36.5q0 78 6.5 136t24 114t54.5 85.5t92 29.5 q110 0 110 -217q0 -55 -4.5 -96t-17.5 -90t-43 -90t-76 -72q7 -114 47 -312q3 -13 26 -87t23 -103q0 -33 -24 -33q-190 0 -207 504q-79 2 -138 10.5t-117 31t-95 59.5t-59.5 97.5t-22.5 143.5zM586 156q3 3 8.5 7.5t8.5 8.5t7 10q25 41 34 78t9 94q0 107 -22 156 q-20 -11 -30.5 -46.5t-12.5 -70t-2 -94.5v-143z" />
<glyph unicode="r" horiz-adv-x="700" d="M27 92q1 131 17 224.5t58 222.5q6 22 30.5 33.5t53.5 11.5q54 0 54 -35q-7 -28 -12.5 -56t-10.5 -59t-8.5 -54t-7.5 -59t-6 -53.5t-5 -58t-4 -53.5t-4 -58.5t-4 -54.5q-6 -49 -53 -49q-36 0 -67 28t-31 70zM80 631q0 34 68.5 66t115.5 32q186 0 287.5 -79.5t101.5 -227.5 q0 -96 -90 -166q19 -21 38 -49t31.5 -49.5t33 -58.5t30.5 -54q9 -15 9 -35q0 -29 -20 -50t-42 -21q-12 0 -20 8q-1 1 -13.5 18.5t-31.5 43.5t-41.5 57t-48.5 65.5t-48 61.5q-66 -17 -114 -17q-49 0 -80 30t-31 75q0 28 37.5 51.5t77.5 23.5q71 0 131 -26q45 55 45 98 q0 56 -28.5 95t-74.5 57t-87.5 25t-84.5 7q-22 0 -59 -12.5t-51 -13.5q-41 20 -41 45zM289 264q0 -14 11 -21t24 -7q28 0 61 22q-19 19 -28 24t-29 5q-39 -3 -39 -23z" />
<glyph unicode="s" horiz-adv-x="731" d="M23 496q0 54 41.5 95t95.5 61t120 32.5t100 15t50 2.5q118 0 262 -34q23 -3 23 -31q-3 -32 -45 -47q-28 -7 -68 -12q-31 -4 -171.5 -14t-176.5 -17q-87 -13 -117 -31q-4 -4 -4 -8t4 -4q101 -38 211 -43q136 -10 184 -21q152 -37 161 -166q1 -9 1 -18q0 -45 -14 -82 t-35.5 -61t-52.5 -41.5t-58.5 -26.5t-60 -14.5t-52 -6.5t-38.5 -1q-125 0 -226.5 64t-101.5 130q0 47 31 77t70.5 40t85.5 10q141 0 264 -63q4 -4 4 -9q0 -8 -4 -12q-14 -14 -48 -27.5t-69 -13.5q-27 0 -102.5 24.5t-118.5 24.5q-64 0 -64 -51q0 -18 14 -29.5t43 -15.5 t50 -5t59 -1q31 0 101.5 10t145.5 37t75 61q0 33 -59.5 58t-125 35.5t-118.5 11.5q-119 3 -175 15t-73.5 34t-17.5 68z" />
<glyph unicode="t" horiz-adv-x="675" d="M31 700q0 27 10 55.5t31 35.5q15 0 17 -30t7 -34q49 -40 101 -59t122 -29q3 3 31 32.5t45.5 44t51.5 30.5t69 16q141 0 141 -166q0 -41 -26 -70.5t-66.5 -42.5t-76 -18.5t-68.5 -5.5h-12q-41 -153 -41 -416q0 -89 4 -225q-14 -13 -25 -17t-33 -4q-26 0 -55.5 22t-46.5 46 q-37 56 -37 207q0 210 70 428q-213 84 -213 200zM451 625q20 -4 32 -4q28 0 61.5 16t33.5 35q0 13 -9 23t-22 10q-34 0 -64.5 -22t-31.5 -58z" />
<glyph unicode="u" horiz-adv-x="684" d="M31 272q0 248 196 488q13 10 29 10q23 0 29 -41q-74 -245 -99 -389q-8 -66 -8 -92q0 -54 14 -80.5t52 -26.5q20 0 37 10.5t32.5 34t28 48.5t27 66t25 74t27 85.5t28.5 87.5q38 90 63 90q18 0 35 -49q80 -213 98 -389l10 -101v-20q0 -86 -63 -86q-15 0 -51 8 q-25 36 -25 74q0 51 -10 116l-8 82q-25 -89 -78 -153.5t-105 -91.5t-96 -27h-2q-112 3 -160 92q-26 88 -26 180z" />
<glyph unicode="v" horiz-adv-x="706" d="M12 610v15q0 58 47 102h74q25 -43 70 -149l100 -334q4 -18 21 -41l192 422q3 7 13.5 27.5t14.5 27.5t11.5 19.5t15 19t15.5 10.5q2 2 10 2q22 0 52 -21t30 -40q0 -28 -9 -54.5t-36 -87.5l-187 -419q-20 -48 -47 -82q-49 -25 -102 -25q-35 0 -76 12l-47 168 q-14 47 -74.5 205.5t-87.5 222.5z" />
<glyph unicode="w" horiz-adv-x="845" d="M20 242q0 86 38 174t90.5 148.5t103.5 99t80 38.5q15 0 35 -4q12 -5 12 -28l-2 -33q-96 -94 -155.5 -189.5t-59.5 -203.5q0 -43 16.5 -74t57.5 -31h14q-23 86 -23 142q0 92 60 165.5t155 73.5q56 0 87.5 -41.5t31.5 -103.5q0 -146 -141 -256q30 -15 45 -15q63 0 113 61.5 t73 136.5t23 138q0 158 -131 281v14q0 26 12 35h18q15 0 26.5 -2.5t39 -18.5t66.5 -47q110 -89 110 -309q0 -84 -20.5 -156t-61 -129.5t-109.5 -90.5t-159 -33q-44 0 -71.5 3t-62.5 19t-55 47q-33 -8 -71 -8q-85 0 -135 53t-50 144zM358 305q0 -45 13 -86q23 18 41 65.5 t18 80.5q0 23 -14 41q-58 -30 -58 -101z" />
<glyph unicode="x" horiz-adv-x="684" d="M41 672q0 25 10 35q49 32 119 32q29 -29 47 -69l82 -148q48 64 92 103q83 71 139 71q32 0 49.5 -23.5t24.5 -101.5q-11 19 -33 19q-6 0 -13 -1.5t-14.5 -6t-13.5 -8t-15.5 -10.5t-14.5 -11.5t-15.5 -13.5t-15.5 -13q-41 -39 -92 -129q5 -7 53.5 -90.5t81.5 -122.5t61 -39 q26 0 38 17t24 59q14 -46 14 -104q0 -66 -24 -110t-68 -44q-11 0 -56.5 42t-62.5 65l-137 180q-58 -136 -86 -227q-9 -32 -32.5 -52.5t-46 -27t-46.5 -6.5q-18 0 -18 45q0 37 10 67q41 161 129 324q-57 78 -88 128t-72 132q-10 13 -10 39z" />
<glyph unicode="y" horiz-adv-x="716" d="M-76 -434q0 27 11.5 93t48 191.5t88.5 249.5q-37 79 -37 150q0 60 21.5 128.5t53.5 125.5t66.5 105.5t63 76.5t41.5 29q20 -3 26 -15.5t6 -42.5q0 -12 -2.5 -22.5t-11 -26t-15.5 -26t-26.5 -39.5t-32.5 -49q-80 -124 -80 -209q0 -20 7 -25h4q3 0 8 8q44 58 91.5 115.5 t107 120.5t114.5 102t92 39t65 -27.5t41.5 -69.5t20 -82t6.5 -75q0 -69 -32.5 -135.5t-83 -115.5t-110 -86.5t-116 -57t-98.5 -19.5q-13 0 -45 -4q-28 -82 -50 -157t-33.5 -122t-31 -132t-34.5 -144l-7 -16q-61 6 -99 52t-38 112zM319 154q107 12 201 94q88 76 88 201 q0 13 -0.5 19t-2.5 17t-7.5 16t-15.5 5q-40 0 -144 -131q-16 -22 -62 -107.5t-57 -113.5z" />
<glyph unicode="z" horiz-adv-x="661" d="M23 684q0 20 6 41q53 -3 147.5 -21t142.5 -18q91 0 168 39q20 8 35 8q27 0 47 -17t23 -46l4 -39q-5 -36 -16.5 -72.5t-24.5 -65t-38 -63t-42 -56t-50.5 -56.5t-50.5 -51.5t-55.5 -52.5t-52.5 -50q25 2 112.5 12t135.5 10q35 0 55 -2q35 -1 53.5 -22t18.5 -51 q0 -31 -20.5 -53.5t-57.5 -22.5h-4q-14 2 -45 2q-14 0 -117 -10q-14 -1 -91.5 -10t-117.5 -9q-44 0 -94 6q-30 6 -47.5 26t-17.5 46q0 28 22 53q42 54 175 192t188 226q-53 -16 -99 -16q-43 0 -89 7t-94 22t-78.5 44.5t-30.5 69.5z" />
<glyph unicode="{" horiz-adv-x="618" d="M45 573q0 19 42 54t84 70.5t42 56.5q0 36 -16.5 71t-40 64t-47 58.5t-40 67t-16.5 77.5q0 200 119.5 332.5t321.5 142.5q3 -28 -9.5 -59t-35.5 -56q-60 -25 -105.5 -65.5t-69 -85t-34.5 -84.5t-11 -76q0 -50 23 -97t50 -78.5t50 -78t23 -94.5q0 -65 -26.5 -120t-65.5 -79 h6q41 -11 58.5 -72.5t17.5 -128.5q0 -50 -50.5 -179.5t-50.5 -174.5q0 -91 53.5 -171t133.5 -128l-74 -82q-54 0 -123.5 63.5t-117.5 147t-48 139.5q0 41 17.5 92.5t39 92.5t39 97.5t17.5 106.5q0 32 -24.5 60t-53.5 44t-53.5 35.5t-24.5 36.5z" />
<glyph unicode="|" horiz-adv-x="389" d="M82 1485l12 18q18 15 70 15q35 0 68.5 -9.5t43.5 -23.5q5 -5 5 -6t-2 -2q-1 -1 -1.5 -1t-1.5 -1q-12 -237 -12 -453q0 -162 9 -534.5t12 -563.5q-3 -16 -19 -28q-34 -27 -102 -27q-47 0 -60 16q-6 18 -6 19q0 6 2 10q17 273 17 661q0 325 -13 654z" />
<glyph unicode="}" horiz-adv-x="618" d="M35 1552q0 9 6 15q87 0 158 -29.5t116 -75.5t75.5 -105t43 -114.5t12.5 -107.5q0 -54 -26.5 -120.5t-53 -136.5t-26.5 -133q0 -32 24.5 -60t53.5 -44t53.5 -35.5t24.5 -36.5q0 -19 -42 -53.5t-84 -70t-42 -56.5q0 -35 21.5 -74t47 -69.5t47 -77.5t21.5 -96 q0 -152 -66.5 -253t-228.5 -161q-43 54 -48 77q-4 22 11 38q174 113 174 268q0 41 -14.5 77t-35.5 62.5t-41.5 53t-35 61t-14.5 74.5q0 122 92 180h-6q-41 11 -58.5 72.5t-17.5 128.5q0 50 57.5 188.5t57.5 183.5q0 46 -2.5 77t-13.5 72t-31 72.5t-57 66.5t-89 65 q-63 52 -63 77z" />
<glyph unicode="~" horiz-adv-x="993" d="M25 662v6q28 54 52 90t54.5 67.5t67.5 46.5t82 15q72 0 229 -92q159 -90 207 -90q52 0 117 45t65 88q0 10 -2 14q32 -10 54 -33t22 -53l-2 -12q-75 -106 -119 -150q-41 -41 -123 -41q-111 0 -254 76q-153 78 -205 78q-65 0 -100.5 -34.5t-71.5 -113.5q-73 50 -73 93z" />
<glyph unicode="&#xa1;" horiz-adv-x="348" d="M61 82l27 119q37 157 47 331q8 164 8 330q0 123 -2 197q3 13 11.5 22.5t14.5 13t22 9.5t20 8q2 -1 13 -8t17.5 -14t8.5 -15l6 -131v-162q0 -49 2 -122t2 -103q0 -24 -1 -88t-1 -111q0 -92 2 -151q0 -51 -29 -154q-8 -19 -20 -29t-37 -14q-91 23 -111 72zM106 1272 q0 34 26.5 61t60.5 27q38 0 66 -23.5t28 -58.5q0 -42 -25.5 -69t-66.5 -27q-35 0 -62 27t-27 63z" />
<glyph unicode="&#xa2;" horiz-adv-x="620" d="M31 600q0 119 67.5 224t184.5 151q6 112 16 196l10 9q42 0 68 -33q3 -3 4.5 -8t2.5 -12.5t1.5 -14t1 -19.5t0.5 -22q0 -39 2 -72l43 2q108 0 129 -40q3 -6 8 -15t6.5 -12t3.5 -8.5t2.5 -11t0.5 -13.5q0 -21 -9 -55q-39 -17 -63 -17q-55 0 -92 58l-27 -8q1 -65 2.5 -159 t2.5 -158t1 -81v-4q11 3 47.5 16.5t59.5 20.5h57q29 -22 29 -53v-6q-5 -81 -189 -97q5 -97 5 -116q0 -36 -21 -54q-14 -4 -41 -4q-31 0 -45 4q-24 18 -35 45v121q-233 18 -233 246zM166 596q0 -107 102 -125v2q0 128 8 365q-46 -35 -78 -101.5t-32 -140.5z" />
<glyph unicode="&#xa3;" horiz-adv-x="1089" d="M33 133q0 78 51 142.5t109 64.5q65 0 139 -21q34 96 55 252l-57 -2q-42 0 -117 21q-38 11 -57 33t-19 47q0 24 16 43.5t42 23.5v-4q0 -7 24 -11q3 -1 4.5 -1t4.5 -1t5 -1q80 -23 132 -23h34q1 11 3 58.5t4 89.5q2 12 2 41l-9 182q0 117 21 158q15 29 31.5 46.5t37.5 25.5 t37.5 10t44.5 2q26 0 87.5 -19.5t86.5 -32.5q32 -19 60.5 -66t28.5 -81q0 -19 -13 -29q-26 26 -80.5 56t-85.5 30q-72 0 -91 -41.5t-25 -195.5q-6 -113 -21 -223q134 18 227 20l23 2q26 0 37 -8q10 -13 10 -49q0 -29 -8 -55.5t-21 -32.5q-78 10 -124 10q-66 0 -168 -16 q-32 -130 -78 -283q320 -157 446 -322q10 -17 10 -24q0 -29 -81 -29q-51 0 -99 29q-49 28 -161 120t-160 117q-73 -182 -217 -182q-53 0 -87 34.5t-34 94.5zM129 160q0 -22 8.5 -39t22.5 -17q107 0 141 115q-9 6 -19 11t-16.5 7t-17 3.5t-13.5 1.5h-15h-11q-30 0 -55 -24 t-25 -58z" />
<glyph unicode="&#xa4;" horiz-adv-x="935" d="M55 336q0 9 9 33t16 34q9 15 33.5 35t27.5 23l2 24q-39 71 -39 174q0 126 58 215v3q-32 20 -47.5 31t-33 36t-15.5 51q0 29 18 46.5t43 17.5q10 0 32.5 -27t41.5 -37q4 -3 13.5 -8.5t19 -11.5t16.5 -12q68 46 170 57q34 22 108 22q79 0 150 -61q32 12 52.5 28t27.5 27.5 t15.5 20t19.5 8.5q26 0 44.5 -16.5t18.5 -42.5q0 -18 -8 -31q-10 -23 -45 -48t-47 -42q61 -106 61 -226q0 -97 -57 -180q11 -8 22 -18.5t25.5 -26t21.5 -22.5q21 -21 21 -45t-25 -43t-51 -19q-5 0 -9.5 2t-7 4.5t-7.5 8.5t-9 10q-37 43 -67 61h-2q-97 -69 -209 -69 q-141 0 -227 59q-8 -9 -19 -18.5t-24 -20.5t-19 -16q-22 -25 -49 -25q-35 0 -52.5 10t-17.5 25zM209 682q0 -112 66.5 -182t177.5 -70q81 0 159 62q11 14 25 20q82 79 82 176q0 102 -53 174q-18 9 -29 31q-51 51 -109 51q-41 0 -57 -16l-113 -90q3 26 5.5 39t4 18t8 18 t11.5 25q-13 -20 -20 -23q-40 -16 -64.5 -30.5t-48 -40.5t-34.5 -65.5t-11 -96.5z" />
<glyph unicode="&#xa5;" horiz-adv-x="739" d="M-20 221q0 17 15.5 45.5t29.5 28.5h198q4 18 11.5 51t11.5 51q-175 -8 -221 -16q-2 0 -5.5 -1t-5.5 -1q-20 0 -20 27q0 16 16.5 48t30.5 33q33 6 113 9q-84 81 -84 213q0 166 77.5 325.5t202.5 296.5q23 19 27 19q12 0 20.5 -9t8.5 -26q0 -12 -8 -33t-16.5 -36.5 t-22.5 -40t-17 -29.5q-147 -256 -147 -469q0 -47 20.5 -92t65.5 -52l18 78q8 32 21 74.5t38.5 120.5t57.5 147t70 135.5t84 106t92 39.5q24 0 42.5 -13t29 -39t17.5 -50t9.5 -62t3 -58t0.5 -53q0 -151 -50.5 -283t-144.5 -208q79 0 142 8q16 1 23 -13.5t7 -33.5 q0 -15 -23 -36.5t-40 -23.5q-35 -4 -82 -4q-133 0 -209 2q-3 -19 -10 -53.5t-10 -48.5q243 0 317 6q35 3 35 -27q0 -15 -29.5 -45t-44.5 -30q-80 -6 -295 -6q-20 -140 -20 -252q0 -19 -14 -44.5t-35 -29.5q-36 10 -73.5 44t-37.5 64q0 53 33 218h-195q-28 0 -28 28zM422 551 q111 43 171 176.5t60 284.5q0 26 -14 82l-12 -7q-69 -64 -128.5 -245t-76.5 -291z" />
<glyph unicode="&#xa6;" horiz-adv-x="266" d="M45 33q0 352 2 549h4q5 0 48.5 5t64.5 5q32 0 35 -10l4 -205q12 -336 12 -344q0 -35 -10 -56.5t-37 -35.5q-66 0 -105 36q-2 6 -7 17t-8 20.5t-3 18.5zM47 739l4 387v119q0 145 17 197q8 8 24.5 11.5t18.5 4.5q36 -14 65 -51q10 -52 10 -113l11 -555q-39 -20 -97 -20 q-53 0 -53 20z" />
<glyph unicode="&#xa7;" horiz-adv-x="794" d="M20 418q0 91 64 194t143 158q-141 90 -141 227q0 81 56 141.5t136.5 88.5t170.5 28q62 0 108.5 -9.5t74.5 -22.5t49.5 -37.5t31.5 -44t22 -51.5q0 -54 -57 -99q-33 -18 -53 -18q-4 0 -6 9.5t-4.5 27.5t-8.5 32q-22 48 -85 73.5t-130 25.5q-21 0 -50 -6t-62 -19 t-55.5 -39.5t-22.5 -60.5q0 -31 24 -58q27 -27 140 -79q93 -43 217 -103q101 -46 145.5 -105.5t44.5 -140.5q0 -145 -168 -344l33 -14q94 -58 94 -174q0 -145 -107.5 -230t-265.5 -85q-29 0 -79.5 7.5t-107 22t-97.5 41t-41 58.5q0 66 57 100q31 18 54 25.5t63 13.5 q4 -4 4 -6l-2 -6q-5 -8 -18.5 -25t-21 -29t-7.5 -20q0 -25 59 -37t135 -12q105 2 171.5 34t66.5 97q0 57 -31.5 99t-82.5 66t-112 44l-122 40t-112 46t-82.5 70.5t-31.5 105.5zM160 444q0 -62 89.5 -122t231.5 -86l4 4q6 7 31 36t36.5 43.5t33 43.5t31.5 49t19 45t9 47 q0 88 -129 147l-149 68q-68 -33 -137.5 -117t-69.5 -158z" />
<glyph unicode="&#xa8;" horiz-adv-x="690" d="M113 1634q0 42 25.5 69.5t66.5 27.5q35 0 61.5 -27t26.5 -64q0 -34 -26 -61t-60 -27q-38 0 -66 23.5t-28 58.5zM408 1640q0 42 25.5 69.5t66.5 27.5q35 0 61.5 -26.5t26.5 -63.5q0 -34 -26 -61t-60 -27q-38 0 -66 23.5t-28 57.5z" />
<glyph unicode="&#xa9;" horiz-adv-x="1376" d="M39 772q0 182 96 336.5t256 243t344 88.5q162 0 301.5 -89.5t219 -234t79.5 -305.5q0 -130 -50.5 -252.5t-136.5 -214t-206.5 -146.5t-253.5 -55q-123 0 -242 50.5t-208 135t-144 201.5t-55 242zM172 829q0 -135 71 -254t190 -189.5t255 -70.5q104 0 197 43.5t158 115.5 t103 168t38 198q0 112 -42 196t-130 156q-31 23 -89 59.5t-65 36.5h-18q10 -7 37.5 -24t38 -25.5t27 -26t22.5 -38t6 -48.5q-110 123 -369 123q-33 0 -82 -18t-61 -21q-6 0 -6 4q0 3 5.5 14t6.5 17h-14q-60 0 -114.5 -46t-89 -112.5t-55 -136t-20.5 -121.5zM326 770 q0 167 121 276t325 109q119 0 143 -45q4 -9 11 -20.5t8.5 -15.5t3.5 -12.5t2 -19.5q0 -19 -10 -61q-45 -18 -70 -18q-62 0 -104 63l-103 -27q-73 -17 -125.5 -75.5t-52.5 -159.5q0 -72 61.5 -138.5t122.5 -66.5q23 0 49 6.5t75.5 23.5t68.5 23h63q33 -26 33 -65 q0 -113 -321 -113q-42 0 -94.5 28.5t-98.5 73.5t-77 108.5t-31 125.5z" />
<glyph unicode="&#xaa;" horiz-adv-x="663" d="M33 1153q0 35 10.5 73t38 80t67.5 75.5t106.5 55t147.5 21.5l-2 -2q13 8 29 8q81 0 121.5 -84.5t40.5 -220.5q0 -103 -35 -180q5 -4 24.5 -30t34.5 -36q14 -19 17.5 -42.5t-4.5 -36.5q-22 0 -40.5 8t-48.5 30.5t-32 24.5q-78 -78 -182 -78q-142 0 -217.5 88.5 t-75.5 245.5zM160 1153q0 -209 164 -209q52 0 92 43q-43 68 -66.5 158.5t-23.5 175.5q0 25 4 49q-4 -5 -11 -10t-8 -6q-151 -74 -151 -201zM426 1343q6 -112 53 -237q6 30 6 55q0 63 -11.5 142t-33.5 79q-14 0 -14 -39z" />
<glyph unicode="&#xab;" horiz-adv-x="841" d="M59 369q20 30 48.5 57.5t52.5 46.5t58 63t65 107q5 10 20.5 65t34.5 70q33 -19 52 -49t16 -63q-7 -82 -41 -148.5t-101 -148.5q94 -96 139 -164.5t50 -157.5q0 -40 -19 -58t-45 -18q-10 0 -19 6t-15.5 13.5t-13.5 22t-10.5 22t-9 23.5t-6.5 18q-21 51 -49.5 95t-61 77 t-54.5 52.5t-54 42t-37 26.5zM371 369q72 51 159.5 170t118.5 239q36 -7 53.5 -41t14.5 -71q-7 -75 -31.5 -127.5t-61.5 -99.5t-49 -70q85 -86 128 -156.5t61 -165.5q-5 -32 -20 -54t-39 -22q-18 0 -42 36.5t-36 68.5q-21 51 -49.5 95t-61 77t-54.5 52.5t-54 42t-37 26.5z " />
<glyph unicode="&#xac;" horiz-adv-x="995" d="M41 688q0 5 1 9.5t2.5 8t4.5 8t5 7t7 7t7 6.5t7.5 6t7.5 5.5t8 5.5t7 5q9 7 33 11.5t39 4.5q528 -10 631 -10q9 35 32 68.5t48 33.5q14 0 19 -11t7 -36q1 -21 19 -123.5t18 -187.5q0 -27 -12 -74q-4 -3 -17.5 -15t-23 -20t-23 -15t-24.5 -7q-13 0 -26 34.5t-15 63.5 q-2 43 -2.5 84.5t-1.5 58.5q0 19 -2 27q-4 4 -320 4h-293q-43 0 -93 9t-50 32z" />
<glyph unicode="&#xad;" horiz-adv-x="688" d="M72 514q0 29 8.5 51.5t23.5 28.5v-6q0 -2 0.5 -4t1.5 -3.5t3.5 -3t4.5 -2.5l6 -3t7 -3q68 -37 156 -37q47 0 139.5 16t140.5 17q4 2 15 2q15 0 20 -8q6 -15 6 -53q0 -90 -18 -105q-37 11 -82 11l-240 -25q-84 0 -149 37q-43 22 -43 90z" />
<glyph unicode="&#xae;" horiz-adv-x="1376" d="M39 772q0 182 96 336.5t256 243t344 88.5q162 0 301.5 -89.5t219 -234t79.5 -305.5q0 -130 -50.5 -252.5t-136.5 -214t-206.5 -146.5t-253.5 -55q-123 0 -242 50.5t-208 135t-144 201.5t-55 242zM172 829q0 -135 71 -254t190 -189.5t255 -70.5q104 0 197 43.5t158 115.5 t103 168t38 198q0 112 -42 196t-130 156q-31 23 -89 59.5t-65 36.5h-18q26 -13 43 -23.5t37 -29.5t30.5 -46t10.5 -61q-99 121 -359 121q-33 0 -82 -18t-61 -21q-6 0 -6 4q0 3 5.5 14t6.5 17h-14q-60 0 -114.5 -46t-89 -112.5t-55 -136t-20.5 -121.5zM319 1034q0 12 7 19 l63 41q15 7 45.5 22.5t40.5 20.5t33.5 15t36.5 13t35.5 8t45.5 6t52 1q34 0 77 -8.5t87.5 -25.5t75 -48t30.5 -70q0 -80 -33 -121q-18 -24 -42 -46t-58 -48.5t-49 -40.5q91 -81 156 -168q2 -2 8.5 -11.5t15 -23t10.5 -16.5q23 -52 23 -72q0 -18 -29 -18q-24 0 -52.5 13.5 t-43.5 33.5l-147 162q-32 32 -105 37h-2q-10 0 -10 -17v-145q0 -129 -80 -129q-26 0 -35 16q-8 193 -8 582q-6 -4 -8 -4q-15 -7 -23.5 -12.5t-10 -8.5t-5.5 -5t-11.5 -2.5t-25.5 -0.5q-64 0 -64 51zM590 866q0 -35 4 -47h6q70 21 133.5 76t63.5 121q0 55 -72 55 q-33 0 -51 -6q-16 -3 -46 -11t-34 -10l-4 -2v-176z" />
<glyph unicode="&#xaf;" horiz-adv-x="688" d="M63 1591q0 25 9.5 46.5t23.5 27.5q2 -11 31 -14q65 -6 119 -6q47 0 97 3.5t114 9.5t106 9q4 2 15 2q15 0 20 -8q6 -15 6 -49q0 -77 -18 -92q-20 2 -58 2q-45 0 -135 -7.5t-141 -7.5q-70 0 -137 11q-26 4 -39 24.5t-13 48.5z" />
<glyph unicode="&#xb0;" horiz-adv-x="516" d="M31 1079q0 101 77.5 180.5t188.5 79.5q42 0 73.5 -18.5t37.5 -46.5q2 2 6 2q20 0 45.5 -25t25.5 -67q0 -123 -78.5 -201t-179.5 -78q-45 0 -82 15q-1 -2 -4.5 -8t-5 -8.5t-5 -7.5t-5.5 -7t-5.5 -5t-6.5 -4.5t-7 -2.5q-10 3 -20.5 24t-11.5 47q0 13 4 29q-5 9 -15.5 25 t-16 26t-10.5 24t-5 27zM109 1079q0 -4 4 -4t8 4q18 35 121 158v2q0 6 -2 8q-48 -12 -88 -64.5t-43 -103.5zM186 1018q0 -2 4 -7t7 -5h28q57 0 121 45t64 114q0 22 -7 32.5t-30 10.5q-27 0 -52.5 -15t-50.5 -46t-42 -58t-42 -71z" />
<glyph unicode="&#xb1;" horiz-adv-x="864" d="M53 825q0 28 12.5 51t32.5 29v-4q0 -7 5.5 -10.5t25.5 -9.5q93 -39 215 -39q4 86 4 135q0 35 -4 117q3 8 30 13t52 5h29q43 0 43 -14v-2q2 -25 2 -74q0 -62 -8 -168q157 21 225 23h2q6 2 20 2q20 0 29 -9q6 -15 6 -53q0 -89 -24 -104q-46 10 -109 10q-54 0 -160 -12v-27 q0 -116 33 -219q4 -16 4 -21q0 -32 -47 -32q-44 0 -80 16q-23 7 -29 29q-22 105 -22 241h-25q-113 0 -202 37q-30 11 -45 36t-15 54zM72 313q0 28 11.5 51t29.5 29v-6q0 -3 1 -5t3.5 -3.5t5 -2.5t8.5 -3t10 -4q87 -37 197 -37q59 0 175.5 16t178.5 17q6 2 19 2q18 0 24 -9 q8 -13 8 -53q0 -88 -22 -104q-44 10 -105 10l-301 -25q-108 0 -188 37q-55 23 -55 90z" />
<glyph unicode="&#xb2;" horiz-adv-x="768" d="M23 745v3q3 34 36 60.5t70 37.5l250 239q41 36 83 94t42 101q0 24 -25 41.5t-53 19.5q-6 2 -18 2q-98 0 -183 -67q-1 0 -10 -29q-4 -17 -7 -25.5t-12.5 -16t-25.5 -7.5q-45 5 -45 70q0 4 1 10.5t1 9.5v10q5 43 28.5 76t59 51t75.5 26.5t83 8.5q29 0 43 -2 q75 -10 122.5 -60t47.5 -134q0 -32 -17 -71t-37.5 -69.5t-60.5 -74.5t-62 -66t-67 -65q-5 -4 -53 -52q50 -4 65 -4q26 -3 76 -16q4 -1 25 -6.5t37.5 -8t35.5 -2.5h25q17 1 31.5 4.5t21.5 6t22 10.5t19 10q33 22 43 27q17 -3 23 -14.5t6 -32.5q-38 -47 -99 -82.5t-114 -36.5 l-322 14q-7 0 -55 -16q-52 -21 -66 -21q-19 0 -29.5 13.5t-10.5 33.5z" />
<glyph unicode="&#xb3;" horiz-adv-x="620" d="M45 883q0 33 5 47t18 14q27 0 45 -31q71 -104 192 -104q32 0 66.5 11t64 41t29.5 73q0 42 -12.5 59.5t-61.5 40.5q-48 -18 -137 -18q-59 0 -102 22t-43 52q0 26 21.5 43.5t53 25t52 10t32.5 2.5q66 0 115 -16q31 8 49.5 47.5t18.5 71.5t-17 55t-46 35t-60.5 17t-67.5 5 q-48 0 -88 -16v2q-29 -12 -29 -18q0 -18 56 -62q-1 0 -19 -1t-22 -1q-12 -4 -23 -4q-30 0 -45.5 21t-15.5 51q0 37 16.5 69t44.5 41q71 23 127 23q297 0 307 -217q-2 -41 -23 -91t-54 -73q53 -32 72.5 -67.5t19.5 -114.5q0 -66 -25.5 -112t-70 -69t-90.5 -32.5t-101 -9.5 q-113 0 -182.5 60.5t-69.5 117.5z" />
<glyph unicode="&#xb4;" horiz-adv-x="483" d="M6 1610h14q26 0 50.5 14.5t62.5 48.5q176 158 258 158q40 0 62 -28t22 -64q0 -28 -13.5 -47t-37.5 -19q-14 0 -33 -6t-50 -20.5t-63 -30.5t-89.5 -44t-112.5 -54q-26 0 -41.5 15.5t-20 32t-8.5 44.5z" />
<glyph unicode="&#xb6;" horiz-adv-x="997" d="M41 1042q0 109 32.5 204.5t102.5 167t168 91.5q32 -2 157.5 -19.5t256.5 -17.5q4 0 62.5 10.5t90.5 10.5q58 0 58 -31q0 -48 -52.5 -83.5t-119.5 -47.5q57 -378 57 -825q0 -215 -16 -553q-2 -36 -13 -53t-37 -17q-33 0 -65 21.5t-29 56.5q19 295 19 477q0 373 -41 789 q0 22 -19 96q-43 2 -92.5 12.5t-85.5 14.5q45 -152 62.5 -283t17.5 -299q0 -157 -18 -416t-21 -373q-1 -27 -3.5 -40t-11.5 -22t-26 -9q-34 0 -69.5 22.5t-32.5 57.5q4 111 19 323.5t18 341.5q-30 -6 -60 -6q-59 0 -117 37.5t-99.5 95t-67 129t-25.5 137.5zM184 1102 q0 -52 10 -103.5t29.5 -99.5t55.5 -78t83 -30q35 0 50 18q-3 154 -22.5 272.5t-65.5 261.5q-53 -25 -96.5 -94.5t-43.5 -146.5z" />
<glyph unicode="&#xb7;" horiz-adv-x="370" d="M23 741q0 73 46 122.5t117 49.5q66 0 114 -47t48 -114q0 -63 -47.5 -112.5t-110.5 -49.5q-68 0 -117.5 44t-49.5 107z" />
<glyph unicode="&#xb8;" horiz-adv-x="350" d="M2 -332q0 26 14 47.5t35 30.5q4 -40 31 -59t65 -19q25 0 46 6q4 16 4 25q0 21 -14 47t-25 39t-41 43l-33 33q-18 18 -18 45q0 29 18 47q45 43 70 82q15 6 36 6q33 0 61 -11.5t32 -33.5q-2 -10 -6 -19t-12 -19.5t-11.5 -14.5t-16.5 -17.5t-14 -15.5q109 -117 109 -217 q0 -27 -4 -41q-11 -54 -50 -80.5t-92 -26.5q-44 0 -88 18.5t-73 49.5q-23 23 -23 55z" />
<glyph unicode="&#xb9;" horiz-adv-x="264" d="M20 1298v21q37 18 65 58.5t32 92.5q12 29 39 29q15 0 38 -10.5t27 -22.5q1 -63 4 -194.5t4 -196.5q10 -262 11 -321q-11 -20 -19 -26.5t-24 -6.5q-35 0 -56 14q-8 12 -8 49q-1 43 -4 127t-4 127q-4 74 -8 230q-18 -6 -25 -6q-46 0 -72 36z" />
<glyph unicode="&#xba;" horiz-adv-x="671" d="M33 1153q0 132 98 217.5t229 85.5q118 0 195.5 -90.5t77.5 -226.5q0 -132 -93 -226t-214 -94q-48 0 -93 10q-10 -53 -14 -53q-7 0 -30.5 22t-28.5 33q-6 9 -6 35q-121 83 -121 287zM160 1153q0 -57 12 -100q8 60 29 133q28 100 129 184q-77 -31 -107 -57 q-63 -55 -63 -160zM254 956q30 -12 70 -12q32 -1 65.5 9t65 32t51.5 62.5t20 93.5q0 65 -34.5 126.5t-61.5 61.5q-21 0 -61.5 -52.5t-69.5 -135.5q-27 -73 -45 -185z" />
<glyph unicode="&#xbb;" horiz-adv-x="841" d="M59 47q18 95 61 165.5t128 156.5q-12 23 -49 70t-61.5 99.5t-31.5 127.5q-3 37 14.5 71t53.5 41q31 -120 118.5 -238.5t160.5 -170.5q-5 -4 -37 -26.5t-54 -42t-54.5 -52.5t-61 -77t-49.5 -95q-12 -32 -36 -68.5t-42 -36.5q-24 0 -39.5 22.5t-20.5 53.5zM371 47 q5 89 50 158t138 164q-66 81 -100 148t-41 149q-3 33 15.5 63t51.5 49q19 -15 35 -70.5t21 -64.5q31 -63 64.5 -107t57.5 -63t52.5 -46.5t48.5 -57.5q-5 -4 -37 -26.5t-54 -42t-54.5 -52.5t-61 -77t-49.5 -95q-1 -2 -6.5 -18t-9 -23.5t-10.5 -22t-13.5 -22t-15.5 -13.5 t-19 -6q-26 0 -44.5 18t-18.5 58z" />
<glyph unicode="&#xbc;" horiz-adv-x="1056" d="M84 92q0 15 8 23q133 188 304 465t286 477l100 196q7 7 17 7q24 0 63 -40.5t39 -66.5q0 -8 -2 -10q-80 -114 -163 -243.5t-139 -222.5t-181 -303t-207 -347q-10 -13 -23 -13q-28 0 -65 27t-37 51zM94 1149v20q37 18 64.5 59t31.5 93q12 29 39 29q16 0 39 -10.5t27 -22.5 q1 -63 4 -194.5t4 -196.5q8 -208 10 -322q-11 -20 -19 -26.5t-24 -6.5q-9 0 -28 4.5t-27 10.5q-8 12 -8 49q-1 43 -4 127t-4 127q-6 113 -9 229q-18 -6 -24 -6q-45 0 -72 37zM578 365q0 69 27 148t69 142q5 11 6.5 14t6 5t13.5 2q11 0 19 -8.5t8 -22.5q0 -25 -20 -70h2 q-39 -90 -39 -184q0 -31 10 -69q52 -43 102 -43h9l2 30v37v46.5t1 52.5t3.5 58.5t6 55t10 52t15 40.5t21 29.5t27.5 9.5q108 0 108 -258q0 -98 -16 -144t-72 -73q3 -126 27 -209h-2q4 -4 4 -12q0 -33 -29 -45h-10q-26 0 -51 9.5t-31 25.5q-12 46 -12 172v45h-2 q-68 0 -114.5 19t-90.5 69q-8 27 -8 76zM887 489q0 -112 2 -155q10 41 10 104q0 83 -10 127q-2 -23 -2 -76z" />
<glyph unicode="&#xbd;" horiz-adv-x="1202" d="M33 1157v21q37 18 64.5 58.5t31.5 92.5q12 29 39 29q15 0 38 -10.5t27 -22.5q1 -63 4.5 -194.5t4.5 -196.5q8 -208 10 -322q-11 -20 -18.5 -26t-24.5 -6q-34 0 -55 14q-9 14 -9 49q-1 43 -4 127t-4 127q-4 75 -8 229q-18 -6 -25 -6q-44 0 -71 37zM68 131q0 15 8 23 q133 188 304 465t286 477l100 196q6 6 16 6q24 0 63.5 -40t39.5 -66q0 -8 -2 -10q-80 -114 -163 -243.5t-139 -222.5t-181 -303t-207 -347q-10 -13 -23 -13q-28 0 -65 27t-37 51zM492 16v2q3 34 36 61t70 38l250 239q41 36 83 94t42 101q0 24 -25 41.5t-53 19.5q-6 2 -18 2 q-98 0 -183 -67q0 -1 -10 -29q-4 -17 -7 -25.5t-12.5 -16t-25.5 -7.5q-45 5 -45 70q0 4 1 10.5t1 9.5v10q5 43 28.5 76t59 51t75.5 26.5t83 8.5q29 0 43 -2q75 -10 122.5 -60t47.5 -134q0 -40 -21 -85t-65 -96.5t-73.5 -82t-84.5 -83.5q-10 -8 -53 -51q50 -4 65 -4 q26 -3 76 -16q3 -1 24.5 -6.5t38 -8t35.5 -2.5h25q17 1 31.5 4.5t21.5 6t22 10.5t19 10q33 22 43 27q17 -3 23 -14.5t6 -32.5q-38 -47 -99 -82.5t-114 -36.5l-322 14q-7 0 -55 -16q-52 -21 -66 -21q-19 0 -29.5 13.5t-10.5 33.5z" />
<glyph unicode="&#xbe;" horiz-adv-x="1196" d="M57 793q0 55 21 55q23 0 39 -29q65 -92 172 -92q29 0 59.5 9.5t57 36t26.5 65.5q0 37 -11.5 52.5t-55.5 37.5q-45 -17 -121 -17q-53 0 -91 19.5t-38 46.5q0 23 19 39t47 22t46 8.5t29 2.5q61 0 102 -15q28 8 44 43t16 64q0 38 -27 61.5t-62.5 31t-80.5 7.5q-38 0 -78 -14 v2q-25 -12 -25 -17q0 -18 50 -55q-1 0 -17 -1t-20 -1q-12 -4 -21 -4q-28 0 -41.5 18t-13.5 45q0 34 15 63t40 38q59 18 113 18q264 0 274 -192q-2 -37 -20.5 -81.5t-48.5 -64.5q48 -29 65 -61t17 -103q0 -47 -15.5 -83t-40 -57.5t-59 -35t-68 -18t-71.5 -4.5q-102 0 -164 54 t-62 106zM227 170q0 14 9 23q132 187 302 463t287 479l101 196q6 6 16 6q24 0 63 -40t39 -66q0 -8 -2 -10q-80 -114 -162.5 -243t-139.5 -223.5t-180.5 -302.5t-207.5 -348q-9 -12 -22 -12q-28 0 -65.5 27t-37.5 51zM694 373q0 69 27 148t70 143q6 14 9.5 17t16.5 3 q11 0 19 -8.5t8 -22.5q0 -22 -21 -69h2q-39 -90 -39 -185q0 -27 11 -69q52 -43 102 -43h8l2 30v37v46.5t1 52.5t3.5 58.5t6 55t10 52t15 40.5t21 29.5t27.5 9.5q109 0 109 -258q0 -98 -16 -144t-72 -73q4 -130 26 -209h-2q4 -4 4 -12q0 -34 -28 -45h-10q-26 0 -51 9.5 t-31 25.5q-13 50 -13 172v45h-2q-68 0 -114.5 19t-90.5 69q-8 27 -8 76zM1004 498q0 -113 2 -156q10 41 10 104q0 83 -10 127q-2 -23 -2 -75z" />
<glyph unicode="&#xbf;" horiz-adv-x="727" d="M25 340q0 52 35 110t85.5 111t101 106.5t85.5 114.5t35 117q0 49 -37.5 98.5t-91.5 49.5h-15l-6 40l19 25l12 4q31 8 47 8q91 0 155 -71t64 -154q0 -85 -35 -159t-84.5 -126t-99 -98.5t-84.5 -94.5t-35 -95q0 -179 203 -179q199 0 199 140q0 37 -91 82q41 20 78 20 q55 0 88 -42.5t33 -88.5q0 -102 -87 -179t-226 -77q-54 0 -97.5 6.5t-92.5 28t-82 57t-54.5 98.5t-21.5 148zM252 1323q0 34 26 61t60 27q38 0 66 -23.5t28 -58.5q0 -42 -25.5 -69t-66.5 -27q-35 0 -61.5 26.5t-26.5 63.5z" />
<glyph unicode="&#xc0;" horiz-adv-x="1112" d="M27 709q0 67 75 88q62 315 209.5 501.5t345.5 186.5q69 0 125 -28.5t94.5 -76t68 -118t47 -144t28.5 -165t15 -170.5t5 -171q51 33 69.5 51t18.5 39q0 11 -2 17q33 0 49.5 -15t16.5 -38q0 -53 -53 -93q-61 -46 -99 -67q-4 -148 -4 -195v-321q0 -14 -5 -35.5t-11 -22.5 q-66 -8 -84 -8q-39 0 -76 13q-23 90 -86.5 210.5t-138.5 221.5q-89 -14 -113 -17q-160 11 -266 68v-21l-4 -428q-4 -14 -12 -23t-21.5 -12.5t-24.5 -4.5t-28 -1h-76q-14 0 -23.5 13.5t-9.5 29.5q0 9 2 15q1 34 4 179t3 224q0 115 8 199q-47 67 -47 119zM262 545 q121 -86 299 -86q-158 178 -285 217q-12 -86 -14 -131zM297 793q23 -3 43 -9q84 -36 181 -116.5t190 -190.5q88 20 157 47q6 177 6 201q0 612 -231 612q-107 0 -201 -152t-145 -392zM414 1726v13q0 61 51 61q21 0 56 -14q2 -1 45.5 -22.5t95.5 -46t113.5 -47.5t97.5 -28 l14 9q-19 -133 -74 -133q-55 26 -113 54t-89.5 43.5t-62.5 29.5t-50 20.5t-33 7.5h-6q-9 0 -26 -10q-19 24 -19 63zM774 397q35 -45 82 -116v49q0 26 6 94q-49 -17 -88 -27z" />
<glyph unicode="&#xc1;" horiz-adv-x="1112" d="M27 709q0 67 75 88q62 315 209.5 501.5t345.5 186.5q69 0 125 -28.5t94.5 -76t68 -118t47 -144t28.5 -165t15 -170.5t5 -171q51 33 69.5 51t18.5 39q0 11 -2 17q33 0 49.5 -15t16.5 -38q0 -53 -53 -93q-61 -46 -99 -67q-4 -148 -4 -195v-321q0 -14 -5 -35.5t-11 -22.5 q-66 -8 -84 -8q-39 0 -76 13q-23 90 -86.5 210.5t-138.5 221.5q-89 -14 -113 -17q-160 11 -266 68v-21l-4 -428q-4 -14 -12 -23t-21.5 -12.5t-24.5 -4.5t-28 -1h-76q-14 0 -23.5 13.5t-9.5 29.5q0 9 2 15q1 34 4 179t3 224q0 115 8 199q-47 67 -47 119zM262 545 q121 -86 299 -86q-158 178 -285 217q-12 -86 -14 -131zM297 793q23 -3 43 -9q84 -36 181 -116.5t190 -190.5q88 20 157 47q6 177 6 201q0 612 -231 612q-107 0 -201 -152t-145 -392zM346 1610h14q26 0 50.5 14.5t62.5 48.5q176 158 258 158q40 0 62 -28t22 -64 q0 -28 -13.5 -47t-37.5 -19q-14 0 -33 -6t-50 -20.5t-63 -30.5t-89.5 -44t-112.5 -54q-26 0 -41.5 15.5t-20 32t-8.5 44.5zM774 397q35 -45 82 -116v49q0 26 6 94q-49 -17 -88 -27z" />
<glyph unicode="&#xc2;" horiz-adv-x="1112" d="M27 709q0 67 75 88q62 315 209.5 501.5t345.5 186.5q69 0 125 -28.5t94.5 -76t68 -118t47 -144t28.5 -165t15 -170.5t5 -171q51 33 69.5 51t18.5 39q0 11 -2 17q33 0 49.5 -15t16.5 -38q0 -53 -53 -93q-61 -46 -99 -67q-4 -148 -4 -195v-321q0 -14 -5 -35.5t-11 -22.5 q-66 -8 -84 -8q-39 0 -76 13q-23 90 -86.5 210.5t-138.5 221.5q-89 -14 -113 -17q-160 11 -266 68v-21l-4 -428q-4 -14 -12 -23t-21.5 -12.5t-24.5 -4.5t-28 -1h-76q-14 0 -23.5 13.5t-9.5 29.5q0 9 2 15q1 34 4 179t3 224q0 115 8 199q-47 67 -47 119zM262 545 q121 -86 299 -86q-158 178 -285 217q-12 -86 -14 -131zM297 793q23 -3 43 -9q84 -36 181 -116.5t190 -190.5q88 20 157 47q6 177 6 201q0 612 -231 612q-107 0 -201 -152t-145 -392zM307 1649q0 19 8 30q20 -10 53 -10q42 0 69.5 20.5t59.5 65.5q13 17 21.5 33t12.5 28 t17 50q3 26 23 41.5t45 15.5q46 0 61 -43q3 -11 8.5 -32.5t9.5 -34.5t14 -33.5t24 -40.5q9 -14 48.5 -30.5t69.5 -16.5q21 0 32 -16.5t11 -39.5q0 -27 -11.5 -50t-31.5 -23q-46 0 -98 17t-78 40q-5 4 -20.5 17t-21.5 18.5t-15 16.5t-14 22q-47 -75 -99 -109q-33 -21 -57 -30 t-59 -9q-34 0 -58 33.5t-24 69.5zM774 397q35 -45 82 -116v49q0 26 6 94q-49 -17 -88 -27z" />
<glyph unicode="&#xc3;" horiz-adv-x="1112" d="M27 709q0 67 75 88q62 315 209.5 501.5t345.5 186.5q69 0 125 -28.5t94.5 -76t68 -118t47 -144t28.5 -165t15 -170.5t5 -171q51 33 69.5 51t18.5 39q0 11 -2 17q33 0 49.5 -15t16.5 -38q0 -53 -53 -93q-61 -46 -99 -67q-4 -148 -4 -195v-321q0 -14 -5 -35.5t-11 -22.5 q-66 -8 -84 -8q-39 0 -76 13q-23 90 -86.5 210.5t-138.5 221.5q-89 -14 -113 -17q-160 11 -266 68v-21l-4 -428q-4 -14 -12 -23t-21.5 -12.5t-24.5 -4.5t-28 -1h-76q-14 0 -23.5 13.5t-9.5 29.5q0 9 2 15q1 34 4 179t3 224q0 115 8 199q-47 67 -47 119zM200 1640 q39 232 226 232q20 0 81.5 -45.5t128.5 -91t101 -45.5q50 0 104 39t54 88q0 14 -2 20q27 -10 46 -31.5t19 -50.5q0 -89 -61 -148t-150 -59q-45 0 -116 38.5t-132.5 77t-82.5 38.5q-56 0 -86.5 -34t-61.5 -114q-34 25 -51 45t-17 41zM262 545q121 -86 299 -86 q-158 178 -285 217q-12 -86 -14 -131zM297 793q23 -3 43 -9q84 -36 181 -116.5t190 -190.5q88 20 157 47q6 177 6 201q0 612 -231 612q-107 0 -201 -152t-145 -392zM774 397q35 -45 82 -116v49q0 26 6 94q-49 -17 -88 -27z" />
<glyph unicode="&#xc4;" horiz-adv-x="1112" d="M27 709q0 67 75 88q62 315 209.5 501.5t345.5 186.5q69 0 125 -28.5t94.5 -76t68 -118t47 -144t28.5 -165t15 -170.5t5 -171q51 33 69.5 51t18.5 39q0 11 -2 17q33 0 49.5 -15t16.5 -38q0 -53 -53 -93q-61 -46 -99 -67q-4 -148 -4 -195v-321q0 -14 -5 -35.5t-11 -22.5 q-66 -8 -84 -8q-39 0 -76 13q-23 90 -86.5 210.5t-138.5 221.5q-89 -14 -113 -17q-160 11 -266 68v-21l-4 -428q-4 -14 -12 -23t-21.5 -12.5t-24.5 -4.5t-28 -1h-76q-14 0 -23.5 13.5t-9.5 29.5q0 9 2 15q1 34 4 179t3 224q0 115 8 199q-47 67 -47 119zM262 545 q121 -86 299 -86q-158 178 -285 217q-12 -86 -14 -131zM297 793q23 -3 43 -9q84 -36 181 -116.5t190 -190.5q88 20 157 47q6 177 6 201q0 612 -231 612q-107 0 -201 -152t-145 -392zM389 1634q0 42 25.5 69.5t66.5 27.5q35 0 61.5 -27t26.5 -64q0 -34 -26 -61t-60 -27 q-38 0 -66 23.5t-28 58.5zM684 1640q0 42 25.5 69.5t66.5 27.5q35 0 61.5 -26.5t26.5 -63.5q0 -34 -26 -61t-60 -27q-38 0 -66 23.5t-28 57.5zM774 397q35 -45 82 -116v49q0 26 6 94q-49 -17 -88 -27z" />
<glyph unicode="&#xc5;" horiz-adv-x="1112" d="M27 709q0 67 75 88q62 315 209.5 501.5t345.5 186.5q69 0 125 -28.5t94.5 -76t68 -118t47 -144t28.5 -165t15 -170.5t5 -171q51 33 69.5 51t18.5 39q0 11 -2 17q33 0 49.5 -15t16.5 -38q0 -53 -53 -93q-61 -46 -99 -67q-4 -148 -4 -195v-321q0 -14 -5 -35.5t-11 -22.5 q-66 -8 -84 -8q-39 0 -76 13q-23 90 -86.5 210.5t-138.5 221.5q-89 -14 -113 -17q-160 11 -266 68v-21l-4 -428q-4 -14 -12 -23t-21.5 -12.5t-24.5 -4.5t-28 -1h-76q-14 0 -23.5 13.5t-9.5 29.5q0 9 2 15q1 34 4 179t3 224q0 115 8 199q-47 67 -47 119zM262 545 q121 -86 299 -86q-158 178 -285 217q-12 -86 -14 -131zM297 793q23 -3 43 -9q84 -36 181 -116.5t190 -190.5q88 20 157 47q6 177 6 201q0 612 -231 612q-107 0 -201 -152t-145 -392zM389 1747q0 27 4 52.5t17.5 56.5t34.5 55t58.5 43t86.5 26q25 15 72 15q78 0 132 -79 t54 -169q0 -91 -72 -154t-158 -63q-112 0 -170.5 59t-58.5 158zM479 1761q0 -61 36 -99t97 -38q50 0 98 43t48 98q0 57 -32.5 99.5t-70.5 42.5q-12 0 -22 -5l-10 -4l-62 -51q2 19 3 24.5t6 15.5l8 16q-2 -3 -4.5 -5.5l-5.5 -5.5l-3 -2q-44 -18 -65 -44t-21 -85zM774 397 q35 -45 82 -116v49q0 26 6 94q-49 -17 -88 -27z" />
<glyph unicode="&#xc6;" horiz-adv-x="1931" d="M59 709q0 66 76 88q62 315 209.5 501.5t345.5 186.5q222 0 314 -303q22 78 77 138.5t129.5 96.5t158 54t171.5 18q117 0 232 -39q42 -13 67 -62t25 -106q0 -50 -22.5 -92.5t-65.5 -42.5q-10 0 -26 3.5t-21 4.5q15 12 35 51.5t20 67.5q0 6 -3 10.5t-17 14t-42 22.5 q-76 27 -178 27q-86 0 -168 -28.5t-141 -90.5t-59 -142q0 -57 17 -105.5t50 -70.5q99 27 199 27q92 0 168 -23q57 -17 73.5 -35t16.5 -63q0 -59 -46.5 -82.5t-185.5 -23.5q-146 0 -237 37q-10 -3 -23 -13q-40 -13 -66 -33.5t-38.5 -50t-16.5 -58t-4 -69.5l2 -106 q0 -165 99.5 -258.5t257.5 -93.5q89 0 179 40.5t153 104.5q45 45 61 45q11 0 14.5 -19t3.5 -67q0 -73 -49 -109q-103 -81 -172.5 -112t-175.5 -31q-209 0 -387 105v-33q0 -14 -5 -35.5t-11 -22.5q-66 -8 -84 -8q-39 0 -76 13q-23 90 -86.5 210.5t-138.5 221.5 q-89 -14 -113 -17q-160 11 -266 68v-21l-4 -428q-4 -14 -12 -23t-21.5 -12.5t-24.5 -4.5t-28 -1h-76q-14 0 -23.5 13.5t-9.5 29.5q0 9 2 15q1 45 2.5 127t2.5 149t1 127q0 115 8 199q-47 67 -47 119zM295 545q121 -86 299 -86q-158 178 -285 217q-12 -86 -14 -131zM330 793 q23 -3 43 -9q173 -75 370 -307q90 20 158 47q6 177 6 201q0 612 -231 612q-107 0 -201 -152t-145 -392zM807 397q35 -45 82 -116v49q0 26 6 94q-49 -17 -88 -27zM1362 823l108 -10q44 0 103 16q-27 15 -74 15q-24 0 -48.5 -3.5t-52.5 -10t-36 -7.5z" />
<glyph unicode="&#xc7;" horiz-adv-x="1253" d="M510 -332q0 26 14 47.5t35 30.5q4 -40 31 -59t65 -19q24 0 45 6q5 20 5 25q0 21 -14 47t-25 39t-41 43l-33 33q-19 19 -19 45q0 28 19 47q45 43 70 82q15 6 36 6q33 0 61 -11.5t32 -33.5q-2 -10 -6 -19t-12 -19.5t-11.5 -14.5t-16.5 -17.5t-14 -15.5q109 -117 109 -217 q0 -27 -4 -41q-11 -54 -50 -80.5t-92 -26.5q-44 0 -88.5 18.5t-73.5 49.5q-22 22 -22 55z" />
<glyph unicode="&#xc8;" horiz-adv-x="1067" d="M18 395q0 156 65 281t191 178q-45 50 -76 114t-34 126q4 100 54.5 178.5t130.5 124.5t173 69t193 23q116 0 231 -39q42 -13 67 -62t25 -106q0 -50 -22.5 -92.5t-65.5 -42.5q-10 0 -26 3.5t-21 4.5q15 12 35 51.5t20 67.5q0 6 -2.5 10.5t-16.5 14t-42 22.5q-76 27 -178 27 q-63 0 -127 -17.5t-118.5 -49t-89 -82.5t-34.5 -112q0 -56 17.5 -105t50.5 -71q99 27 198 27q92 0 168 -23q57 -17 73.5 -35t16.5 -63q0 -59 -46 -82.5t-185 -23.5q-146 0 -237 37q-10 -3 -23 -13q-184 -58 -184 -319q0 -108 62.5 -189.5t156 -121t198.5 -39.5 q89 0 179 40.5t153 104.5q45 45 62 45q11 0 14.5 -19t3.5 -67q0 -60 -49 -109q-77 -77 -156.5 -110t-191.5 -33q-120 0 -229 31t-195.5 89t-137.5 150.5t-51 206.5zM405 1726v13q0 61 51 61q21 0 56 -14q2 -1 45.5 -22.5t95.5 -46t113.5 -47.5t97.5 -28l14 9 q-19 -133 -74 -133q-55 26 -113 54t-89.5 43.5t-62.5 29.5t-50 20.5t-33 7.5h-6q-9 0 -26 -10q-19 24 -19 63zM537 823l108 -10q44 0 103 16q-27 15 -74 15q-24 0 -48.5 -3.5t-52.5 -10t-36 -7.5z" />
<glyph unicode="&#xc9;" horiz-adv-x="1024" d="M18 395q0 156 65 281t191 178q-45 50 -76 114t-34 126q4 100 54.5 178.5t130.5 124.5t173 69t193 23q116 0 231 -39q42 -13 67 -62t25 -106q0 -50 -22.5 -92.5t-65.5 -42.5q-10 0 -26 3.5t-21 4.5q15 12 35 51.5t20 67.5q0 6 -2.5 10.5t-16.5 14t-42 22.5q-76 27 -178 27 q-63 0 -127 -17.5t-118.5 -49t-89 -82.5t-34.5 -112q0 -56 17.5 -105t50.5 -71q99 27 198 27q92 0 168 -23q57 -17 73.5 -35t16.5 -63q0 -59 -46 -82.5t-185 -23.5q-146 0 -237 37q-10 -3 -23 -13q-184 -58 -184 -319q0 -108 62.5 -189.5t156 -121t198.5 -39.5 q89 0 179 40.5t153 104.5q45 45 62 45q11 0 14.5 -19t3.5 -67q0 -60 -49 -109q-77 -77 -156.5 -110t-191.5 -33q-120 0 -229 31t-195.5 89t-137.5 150.5t-51 206.5zM365 1610h14q26 0 50.5 14.5t62.5 48.5q176 158 258 158q40 0 62 -28t22 -64q0 -28 -14 -47t-38 -19 q-14 0 -33 -6t-50 -20.5t-63 -30.5t-89.5 -44t-112.5 -54q-20 0 -33 7.5t-20 23t-10 28t-6 33.5zM537 823l108 -10q44 0 103 16q-27 15 -74 15q-24 0 -48.5 -3.5t-52.5 -10t-36 -7.5z" />
<glyph unicode="&#xca;" horiz-adv-x="1067" d="M18 395q0 156 65 281t191 178q-45 50 -76 114t-34 126q4 100 54.5 178.5t130.5 124.5t173 69t193 23q116 0 231 -39q42 -13 67 -62t25 -106q0 -50 -22.5 -92.5t-65.5 -42.5q-10 0 -26 3.5t-21 4.5q15 12 35 51.5t20 67.5q0 6 -2.5 10.5t-16.5 14t-42 22.5q-76 27 -178 27 q-63 0 -127 -17.5t-118.5 -49t-89 -82.5t-34.5 -112q0 -56 17.5 -105t50.5 -71q99 27 198 27q92 0 168 -23q57 -17 73.5 -35t16.5 -63q0 -59 -46 -82.5t-185 -23.5q-146 0 -237 37q-10 -3 -23 -13q-184 -58 -184 -319q0 -108 62.5 -189.5t156 -121t198.5 -39.5 q89 0 179 40.5t153 104.5q45 45 62 45q11 0 14.5 -19t3.5 -67q0 -60 -49 -109q-77 -77 -156.5 -110t-191.5 -33q-120 0 -229 31t-195.5 89t-137.5 150.5t-51 206.5zM328 1649q0 19 8 30q20 -10 53 -10q42 0 69.5 20.5t59.5 65.5q13 17 21.5 33t12.5 28t17 50q3 26 23 41.5 t45 15.5q46 0 61 -43q3 -11 8.5 -32.5t9.5 -34.5t14 -33.5t24 -40.5q9 -14 48.5 -30.5t69.5 -16.5q21 0 32 -16.5t11 -39.5q0 -27 -11.5 -50t-31.5 -23q-46 0 -98 17t-78 40q-5 4 -20.5 17t-21.5 18.5t-15 16.5t-14 22q-47 -75 -99 -109q-33 -21 -57 -30t-59 -9 q-34 0 -58 33.5t-24 69.5zM537 823l108 -10q44 0 103 16q-27 15 -74 15q-24 0 -48.5 -3.5t-52.5 -10t-36 -7.5z" />
<glyph unicode="&#xcb;" horiz-adv-x="1067" d="M18 395q0 156 65 281t191 178q-45 50 -76 114t-34 126q4 100 54.5 178.5t130.5 124.5t173 69t193 23q116 0 231 -39q42 -13 67 -62t25 -106q0 -50 -22.5 -92.5t-65.5 -42.5q-10 0 -26 3.5t-21 4.5q15 12 35 51.5t20 67.5q0 6 -2.5 10.5t-16.5 14t-42 22.5q-76 27 -178 27 q-63 0 -127 -17.5t-118.5 -49t-89 -82.5t-34.5 -112q0 -56 17.5 -105t50.5 -71q99 27 198 27q92 0 168 -23q57 -17 73.5 -35t16.5 -63q0 -59 -46 -82.5t-185 -23.5q-146 0 -237 37q-10 -3 -23 -13q-184 -58 -184 -319q0 -108 62.5 -189.5t156 -121t198.5 -39.5 q89 0 179 40.5t153 104.5q45 45 62 45q11 0 14.5 -19t3.5 -67q0 -60 -49 -109q-77 -77 -156.5 -110t-191.5 -33q-120 0 -229 31t-195.5 89t-137.5 150.5t-51 206.5zM412 1634q0 42 25.5 69.5t66.5 27.5q35 0 61.5 -27t26.5 -64q0 -34 -26 -61t-60 -27q-38 0 -66 23.5 t-28 58.5zM537 823l108 -10q44 0 103 16q-27 15 -74 15q-24 0 -48.5 -3.5t-52.5 -10t-36 -7.5zM707 1640q0 42 25.5 69.5t66.5 27.5q35 0 61.5 -26.5t26.5 -63.5q0 -34 -26 -61t-60 -27q-38 0 -66 23.5t-28 57.5z" />
<glyph unicode="&#xcc;" horiz-adv-x="751" d="M49 57q0 25 21 40.5t51 15.5q36 0 47 -25q-14 -1 -22.5 -10.5t-8.5 -20.5q0 -32 48 -65.5t120 -34.5q47 0 84 23.5t60.5 67.5t39 96.5t23.5 122t11 130.5t3 135q0 46 -2 123.5t-2 104.5q-4 537 -33 555q-33 -11 -42.5 -112t-12 -320t-12.5 -361l-2 -28q0 -66 24 -222 q-65 91 -87.5 240t-22.5 391v80q0 475 119 475q75 0 112.5 -32.5t67.5 -110.5q5 -9 17.5 -82.5t27 -251t14.5 -381.5q0 -64 -3.5 -123.5t-14 -132.5t-27.5 -134t-47.5 -121t-70 -102t-97.5 -67.5t-129 -25.5q-98 0 -176 50t-78 113zM242 1726v13q0 61 51 61q20 0 55 -14 q2 -1 45.5 -22.5t95.5 -46t113.5 -47.5t97.5 -28l15 9q-19 -133 -74 -133q-55 26 -113 54t-89.5 43.5t-62.5 29.5t-50 20.5t-33 7.5h-6q-10 0 -27 -10q-18 23 -18 63z" />
<glyph unicode="&#xcd;" horiz-adv-x="751" d="M49 57q0 25 21 40.5t51 15.5q36 0 47 -25q-14 -1 -22.5 -10.5t-8.5 -20.5q0 -32 48 -65.5t120 -34.5q47 0 84 23.5t60.5 67.5t39 96.5t23.5 122t11 130.5t3 135q0 46 -2 123.5t-2 104.5q-4 537 -33 555q-33 -11 -42.5 -112t-12 -320t-12.5 -361l-2 -28q0 -66 24 -222 q-65 91 -87.5 240t-22.5 391v80q0 475 119 475q75 0 112.5 -32.5t67.5 -110.5q5 -9 17.5 -82.5t27 -251t14.5 -381.5q0 -64 -3.5 -123.5t-14 -132.5t-27.5 -134t-47.5 -121t-70 -102t-97.5 -67.5t-129 -25.5q-98 0 -176 50t-78 113zM221 1610h15q26 0 50 14t62 49 q176 158 258 158q40 0 62 -28t22 -64q0 -28 -13.5 -47t-37.5 -19q-14 0 -33 -6t-50 -20.5t-63 -30.5t-89.5 -44t-112.5 -54q-26 0 -41.5 15.5t-20 32t-8.5 44.5z" />
<glyph unicode="&#xce;" horiz-adv-x="751" d="M49 57q0 25 21 40.5t51 15.5q36 0 47 -25q-14 -1 -22.5 -10.5t-8.5 -20.5q0 -32 48 -65.5t120 -34.5q47 0 84 23.5t60.5 67.5t39 96.5t23.5 122t11 130.5t3 135q0 46 -2 123.5t-2 104.5q-4 537 -33 555q-33 -11 -42.5 -112t-12 -320t-12.5 -361l-2 -28q0 -66 24 -222 q-65 91 -87.5 240t-22.5 391v80q0 475 119 475q75 0 112.5 -32.5t67.5 -110.5q5 -9 17.5 -82.5t27 -251t14.5 -381.5q0 -64 -3.5 -123.5t-14 -132.5t-27.5 -134t-47.5 -121t-70 -102t-97.5 -67.5t-129 -25.5q-98 0 -176 50t-78 113zM166 1649q0 19 8 30q20 -10 53 -10 q42 0 69.5 20.5t59.5 65.5q19 25 27.5 43.5t24.5 67.5q3 26 22.5 41.5t44.5 15.5q47 0 62 -43q3 -8 10 -39.5t16.5 -53.5t28.5 -48q9 -14 49 -30.5t70 -16.5q21 0 32 -16.5t11 -39.5q0 -27 -11.5 -50t-31.5 -23q-46 0 -98 17t-78 40q-6 5 -21 17t-21.5 18.5t-15.5 17 t-14 21.5q-48 -76 -98 -109q-33 -21 -57.5 -30t-59.5 -9q-34 0 -58 33.5t-24 69.5z" />
<glyph unicode="&#xcf;" horiz-adv-x="751" d="M49 57q0 25 21 40.5t51 15.5q36 0 47 -25q-14 -1 -22.5 -10.5t-8.5 -20.5q0 -32 48 -65.5t120 -34.5q47 0 84 23.5t60.5 67.5t39 96.5t23.5 122t11 130.5t3 135q0 46 -2 123.5t-2 104.5q-4 537 -33 555q-33 -11 -42.5 -112t-12 -320t-12.5 -361l-2 -28q0 -66 24 -222 q-65 91 -87.5 240t-22.5 391v80q0 475 119 475q75 0 112.5 -32.5t67.5 -110.5q5 -9 17.5 -82.5t27 -251t14.5 -381.5q0 -64 -3.5 -123.5t-14 -132.5t-27.5 -134t-47.5 -121t-70 -102t-97.5 -67.5t-129 -25.5q-98 0 -176 50t-78 113zM236 1634q0 42 25.5 69.5t66.5 27.5 q35 0 61.5 -27t26.5 -64q0 -34 -26 -61t-60 -27q-38 0 -66 23.5t-28 58.5zM530 1640q0 42 26 69.5t67 27.5q35 0 61.5 -26.5t26.5 -63.5q0 -34 -26 -61t-60 -27q-38 0 -66.5 23.5t-28.5 57.5z" />
<glyph unicode="&#xd0;" horiz-adv-x="1908" d="M29 1286q0 193 467 193q224 0 571 -127q78 -28 165.5 -75t180.5 -110.5t177.5 -143.5t151.5 -167t106.5 -189t39.5 -202q0 -133 -67 -239.5t-177 -171t-243 -98.5t-275 -34q-156 0 -295 8l-24 -63q-46 -8 -70 -8l-47 4q-2 2 -9.5 11t-8.5 10.5t-7 9t-7 9.5t-4.5 8.5 t-4.5 11t-3.5 11.5t-4 14.5t-2.5 16.5q-46 15 -78 28t-68.5 32t-55.5 42.5t-19 49.5q0 50 12 70t45 28q2 -25 8.5 -40t24.5 -32q43 -39 131 -51l14 453q-35 -1 -118 -7.5t-103 -7.5h-6q-39 0 -39 27q0 22 22 49t48 37q104 44 205 49l4 82q24 240 69 277q51 -40 67 -86.5 t21 -128.5q3 -70 11 -127h28q155 0 273 -72q28 -17 28 -43q0 -27 -32 -49.5t-68 -22.5q-9 0 -25 4q-78 27 -155 27q-42 0 -58 -2v-471q140 -17 240 -17q55 0 105.5 3t117 13t121.5 27t111 47.5t95 71t63 101.5t24 135q0 103 -41 202.5t-109.5 180.5t-160.5 154t-190.5 127 t-203.5 94q-189 72 -344.5 104.5t-345.5 32.5q-91 0 -166 -19q-47 -11 -47 -22q0 -6 17.5 -12t38 -10t22.5 -5q10 -7 10 -16t-8 -17q-2 0 -19 -1t-30 -1q-96 0 -96 33z" />
<glyph unicode="&#xd1;" horiz-adv-x="1155" d="M10 113q0 27 4 39q21 74 46.5 186.5t41.5 190.5t50.5 250t46.5 233q-45 134 -45 266q0 64 27 100.5t67 36.5q46 0 62.5 -66.5t16.5 -162.5t3 -111q0 -2 2 -2q45 -100 116.5 -234.5t157.5 -277t170.5 -240t134.5 -96.5q47 155 47 328q0 206 -59 416t-160 448q0 18 19 56 q375 -360 375 -891q0 -533 -205 -609q-75 3 -199.5 132t-246 328t-183.5 386q-15 -221 -44.5 -382t-94.5 -386q-5 -19 -9 -28.5t-12 -23.5t-22.5 -20t-34.5 -6q-29 0 -50.5 45t-21.5 95zM155 1640q39 232 226 232q20 0 81.5 -45.5t128.5 -91t101 -45.5q50 0 104 39t54 88 q0 14 -2 20q27 -10 46 -31.5t19 -50.5q0 -89 -61 -148t-150 -59q-45 0 -116 38.5t-132.5 77t-82.5 38.5q-56 0 -86.5 -34t-61.5 -114q-34 25 -51 45t-17 41zM229 1288q0 -21 19 -61q10 48 10 80q0 26 -10 26q-13 0 -16 -9t-3 -36z" />
<glyph unicode="&#xd2;" d="M33 643q0 118 30 238.5t90 229t141 193.5t190.5 135t230.5 50q98 0 176.5 -48.5t130.5 -131.5q91 32 170 32q62 0 121 -37t59 -100q0 -26 -10 -43.5t-25 -17.5q-14 0 -22.5 8.5t-14.5 28.5q-21 69 -114 69q-56 0 -119 -26q37 -90 37 -193q0 -36 -10 -94q14 -12 24 -60 t10 -83q0 -85 -15.5 -178t-46 -189t-80 -182t-112.5 -153.5t-150.5 -107.5t-186.5 -40t-184 44t-142.5 115.5t-98.5 163.5t-60 188t-19 189zM227 627q0 -105 20.5 -193t63 -158.5t114.5 -110.5t167 -40q103 0 202 99.5t162.5 245t79.5 290.5q-48 -103 -123 -167.5 t-178 -64.5q-192 0 -192 226q0 135 102 271.5t252 225.5q-35 61 -81.5 95t-96.5 34q-111 0 -205.5 -64t-156 -170.5t-96 -241t-34.5 -277.5zM479 1726v13q0 61 51 61q21 0 56 -14q2 -1 45.5 -22.5t95.5 -46t113.5 -47.5t97.5 -28l14 9q-3 -25 -6.5 -40.5t-11.5 -41 t-22 -38.5t-33 -13q-55 25 -113 53.5t-90 44t-63 29.5t-50 20.5t-33 7.5h-6q-9 0 -26 -10q-19 24 -19 63zM700 725q0 -58 18.5 -87.5t49.5 -29.5q65 0 129 119.5t64 261.5q0 74 -21 156q-103 -82 -171.5 -198t-68.5 -222z" />
<glyph unicode="&#xd3;" d="M33 643q0 118 30 238.5t90 229t141 193.5t190.5 135t230.5 50q98 0 176.5 -48.5t130.5 -131.5q91 32 170 32q62 0 121 -37t59 -100q0 -26 -10 -43.5t-25 -17.5q-14 0 -22.5 8.5t-14.5 28.5q-21 69 -114 69q-56 0 -119 -26q37 -90 37 -193q0 -36 -10 -94q14 -12 24 -60 t10 -83q0 -85 -15.5 -178t-46 -189t-80 -182t-112.5 -153.5t-150.5 -107.5t-186.5 -40t-184 44t-142.5 115.5t-98.5 163.5t-60 188t-19 189zM227 627q0 -105 20.5 -193t63 -158.5t114.5 -110.5t167 -40q103 0 202 99.5t162.5 245t79.5 290.5q-48 -103 -123 -167.5 t-178 -64.5q-192 0 -192 226q0 135 102 271.5t252 225.5q-35 61 -81.5 95t-96.5 34q-111 0 -205.5 -64t-156 -170.5t-96 -241t-34.5 -277.5zM362 1610h15q26 0 50 14t62 49q176 158 259 158q40 0 61.5 -28t21.5 -64q0 -28 -13.5 -47t-37.5 -19q-14 0 -33 -6t-50 -20.5 t-63 -30.5t-89.5 -44t-112.5 -54q-26 0 -41.5 15.5t-20 32t-8.5 44.5zM700 725q0 -58 18.5 -87.5t49.5 -29.5q65 0 129 119.5t64 261.5q0 74 -21 156q-103 -82 -171.5 -198t-68.5 -222z" />
<glyph unicode="&#xd4;" d="M33 643q0 118 30 238.5t90 229t141 193.5t190.5 135t230.5 50q98 0 176.5 -48.5t130.5 -131.5q91 32 170 32q62 0 121 -37t59 -100q0 -26 -10 -43.5t-25 -17.5q-14 0 -22.5 8.5t-14.5 28.5q-21 69 -114 69q-56 0 -119 -26q37 -90 37 -193q0 -36 -10 -94q14 -12 24 -60 t10 -83q0 -85 -15.5 -178t-46 -189t-80 -182t-112.5 -153.5t-150.5 -107.5t-186.5 -40t-184 44t-142.5 115.5t-98.5 163.5t-60 188t-19 189zM227 627q0 -105 20.5 -193t63 -158.5t114.5 -110.5t167 -40q103 0 202 99.5t162.5 245t79.5 290.5q-48 -103 -123 -167.5 t-178 -64.5q-192 0 -192 226q0 135 102 271.5t252 225.5q-35 61 -81.5 95t-96.5 34q-111 0 -205.5 -64t-156 -170.5t-96 -241t-34.5 -277.5zM360 1649q0 18 9 30q20 -10 53 -10q42 0 69.5 20.5t59.5 65.5q13 17 21.5 33t12.5 28t17 50q3 26 23 41.5t45 15.5q46 0 61 -43 q3 -8 10 -39.5t16.5 -53.5t28.5 -48q9 -14 49 -30.5t70 -16.5q21 0 32 -16.5t11 -39.5q0 -27 -11.5 -50t-31.5 -23q-46 0 -98 17t-78 40q-6 5 -21 17t-21.5 18.5t-15.5 17t-14 21.5q-48 -76 -98 -109q-33 -21 -57.5 -30t-59.5 -9q-34 0 -58 33.5t-24 69.5zM700 725 q0 -58 18.5 -87.5t49.5 -29.5q65 0 129 119.5t64 261.5q0 74 -21 156q-103 -82 -171.5 -198t-68.5 -222z" />
<glyph unicode="&#xd5;" d="M33 643q0 118 30 238.5t90 229t141 193.5t190.5 135t230.5 50q98 0 176.5 -48.5t130.5 -131.5q91 32 170 32q62 0 121 -37t59 -100q0 -26 -10 -43.5t-25 -17.5q-14 0 -22.5 8.5t-14.5 28.5q-21 69 -114 69q-56 0 -119 -26q37 -90 37 -193q0 -36 -10 -94q14 -12 24 -60 t10 -83q0 -85 -15.5 -178t-46 -189t-80 -182t-112.5 -153.5t-150.5 -107.5t-186.5 -40t-184 44t-142.5 115.5t-98.5 163.5t-60 188t-19 189zM227 627q0 -105 20.5 -193t63 -158.5t114.5 -110.5t167 -40q103 0 202 99.5t162.5 245t79.5 290.5q-48 -103 -123 -167.5 t-178 -64.5q-192 0 -192 226q0 135 102 271.5t252 225.5q-35 61 -81.5 95t-96.5 34q-111 0 -205.5 -64t-156 -170.5t-96 -241t-34.5 -277.5zM258 1640q12 70 36 118.5t56.5 72t64 32.5t68.5 9q20 0 82 -45.5t129 -91t101 -45.5q50 0 103.5 39t53.5 88q0 14 -2 20 q27 -10 46.5 -31.5t19.5 -50.5q0 -89 -61 -148t-150 -59q-45 0 -116.5 38.5t-133 77t-82.5 38.5q-56 0 -86 -34t-61 -114q-34 25 -51 45t-17 41zM700 725q0 -58 18.5 -87.5t49.5 -29.5q65 0 129 119.5t64 261.5q0 74 -21 156q-103 -82 -171.5 -198t-68.5 -222z" />
<glyph unicode="&#xd6;" d="M33 643q0 118 30 238.5t90 229t141 193.5t190.5 135t230.5 50q98 0 176.5 -48.5t130.5 -131.5q91 32 170 32q62 0 121 -37t59 -100q0 -26 -10 -43.5t-25 -17.5q-14 0 -22.5 8.5t-14.5 28.5q-21 69 -114 69q-56 0 -119 -26q37 -90 37 -193q0 -36 -10 -94q14 -12 24 -60 t10 -83q0 -85 -15.5 -178t-46 -189t-80 -182t-112.5 -153.5t-150.5 -107.5t-186.5 -40t-184 44t-142.5 115.5t-98.5 163.5t-60 188t-19 189zM227 627q0 -105 20.5 -193t63 -158.5t114.5 -110.5t167 -40q103 0 202 99.5t162.5 245t79.5 290.5q-48 -103 -123 -167.5 t-178 -64.5q-192 0 -192 226q0 135 102 271.5t252 225.5q-35 61 -81.5 95t-96.5 34q-111 0 -205.5 -64t-156 -170.5t-96 -241t-34.5 -277.5zM418 1634q0 42 25.5 69.5t66.5 27.5q35 0 61.5 -27t26.5 -64q0 -34 -26 -61t-60 -27q-38 0 -66 23.5t-28 58.5zM700 725 q0 -58 18.5 -87.5t49.5 -29.5q65 0 129 119.5t64 261.5q0 74 -21 156q-103 -82 -171.5 -198t-68.5 -222zM713 1640q0 42 25.5 69.5t66.5 27.5q35 0 61.5 -26.5t26.5 -63.5q0 -34 -26 -61t-60 -27q-38 0 -66 23.5t-28 57.5z" />
<glyph unicode="&#xd7;" horiz-adv-x="847" d="M121 905q0 18 10 31q60 29 125 29q30 -23 47 -62l86 -129q51 57 94 90q88 62 146 62q33 0 51.5 -20.5t28.5 -88.5q-14 17 -35 17q-5 0 -10 -1t-9.5 -2t-10.5 -4l-10 -5t-11.5 -6t-11 -6.5t-12 -8t-11 -7.5t-12 -8t-11.5 -8q-48 -39 -94 -112q12 -16 44 -61.5t54 -75.5 t52.5 -56.5t54.5 -26.5q26 0 39 14.5t24 51.5q15 -44 15 -90q0 -59 -25 -97t-72 -38q-11 0 -58.5 37t-63.5 57l-144 156q-46 -90 -90 -197q-9 -27 -33.5 -45.5t-48 -24.5t-47.5 -6q-20 0 -20 37q0 21 10 61q47 138 135 283q-57 66 -88.5 109t-77.5 116q-10 17 -10 35z" />
<glyph unicode="&#xd8;" d="M27 655q0 198 50.5 338t203.5 324q75 91 206 110l17 -18v-80q-1 -5 -2.5 -16t-3.5 -19t-6 -12q-48 -41 -81.5 -75t-76.5 -92t-69.5 -119t-45 -150t-18.5 -191q0 -197 73 -331q297 388 525 716q-93 0 -181 74t-88 160q0 58 21 100t58.5 65.5t82.5 34.5t99 11 q105 0 225 -111l71 117q12 6 23 6q36 0 96 -51t60 -84q0 -10 -4 -12q-83 -100 -111 -136q160 -249 160 -559q0 -155 -52 -291t-137 -227.5t-194 -144.5t-223 -53q-229 0 -396 110q-14 -20 -40 -56.5t-38 -53.5q-11 -17 -34 -17q-39 0 -95.5 34.5t-56.5 63.5q0 22 12 29 q35 41 109 135q-139 190 -139 471zM399 178q126 -94 306 -94q123 0 225 81.5t157.5 213t55.5 280.5q0 199 -101 416q-40 -53 -79.5 -105t-88 -119.5t-79 -109.5t-93.5 -131.5t-88.5 -125.5t-107 -152t-107.5 -154zM680 1286q0 -53 53 -110t117 -64q19 27 49 73t37 56v2 q-91 109 -170 109q-44 0 -65 -18t-21 -48z" />
<glyph unicode="&#xd9;" horiz-adv-x="1298" d="M47 741q0 188 49 366.5t140 319.5q31 25 45 25q16 0 16 -27q0 -22 -27 -120q-67 -234 -67 -478q0 -86 4 -160t15.5 -153.5t30 -144t48.5 -123.5t70 -98.5t97 -63t126 -23.5q80 0 166.5 49.5t157.5 143.5q-56 127 -76.5 267.5t-20.5 363.5q0 54 12.5 141.5t36.5 186 t67.5 168t96.5 69.5q34 0 62.5 -16t49.5 -40.5t37 -65t26.5 -78t18 -90.5t11 -92t5.5 -94t2.5 -84.5t0.5 -74.5q0 -141 -39 -290.5t-112 -276.5q52 -98 106 -189q33 -26 33 -65q0 -33 -22 -58.5t-52 -25.5q-23 0 -47 18q-77 109 -119 178q-176 -204 -409 -204 q-106 0 -190 30t-142 86.5t-99 131t-64.5 171.5t-33.5 198.5t-10 221.5zM354 1726v13q0 61 51 61q21 0 56 -14q2 -1 45.5 -22.5t95.5 -46t113.5 -47.5t97.5 -28l14 9q-19 -133 -74 -133q-55 26 -113 54t-89.5 43.5t-62.5 29.5t-50 20.5t-33 7.5h-6q-9 0 -26 -10 q-19 24 -19 63zM977 834q0 -262 43 -400q70 177 70 395q0 205 -6.5 314.5t-12.5 128t-16 18.5q-31 0 -54.5 -193t-23.5 -263z" />
<glyph unicode="&#xda;" horiz-adv-x="1298" d="M47 741q0 188 49 366.5t140 319.5q31 25 45 25q16 0 16 -27q0 -22 -27 -120q-67 -234 -67 -478q0 -86 4 -160t15.5 -153.5t30 -144t48.5 -123.5t70 -98.5t97 -63t126 -23.5q80 0 166.5 49.5t157.5 143.5q-56 127 -76.5 267.5t-20.5 363.5q0 54 12.5 141.5t36.5 186 t67.5 168t96.5 69.5q34 0 62.5 -16t49.5 -40.5t37 -65t26.5 -78t18 -90.5t11 -92t5.5 -94t2.5 -84.5t0.5 -74.5q0 -141 -39 -290.5t-112 -276.5q52 -98 106 -189q33 -26 33 -65q0 -33 -22 -58.5t-52 -25.5q-23 0 -47 18q-77 109 -119 178q-176 -204 -409 -204 q-106 0 -190 30t-142 86.5t-99 131t-64.5 171.5t-33.5 198.5t-10 221.5zM389 1610h14q26 0 50.5 14.5t62.5 48.5q176 158 258 158q40 0 62 -28t22 -64q0 -28 -13.5 -47t-37.5 -19q-14 0 -33 -6t-50 -20.5t-63 -30.5t-89.5 -44t-112.5 -54q-26 0 -41.5 15.5t-20 32t-8.5 44.5 zM977 834q0 -262 43 -400q70 177 70 395q0 205 -6.5 314.5t-12.5 128t-16 18.5q-31 0 -54.5 -193t-23.5 -263z" />
<glyph unicode="&#xdb;" horiz-adv-x="1298" d="M47 741q0 188 49 366.5t140 319.5q31 25 45 25q16 0 16 -27q0 -22 -27 -120q-67 -234 -67 -478q0 -86 4 -160t15.5 -153.5t30 -144t48.5 -123.5t70 -98.5t97 -63t126 -23.5q80 0 166.5 49.5t157.5 143.5q-56 127 -76.5 267.5t-20.5 363.5q0 54 12.5 141.5t36.5 186 t67.5 168t96.5 69.5q34 0 62.5 -16t49.5 -40.5t37 -65t26.5 -78t18 -90.5t11 -92t5.5 -94t2.5 -84.5t0.5 -74.5q0 -141 -39 -290.5t-112 -276.5q52 -98 106 -189q33 -26 33 -65q0 -33 -22 -58.5t-52 -25.5q-23 0 -47 18q-77 109 -119 178q-176 -204 -409 -204 q-106 0 -190 30t-142 86.5t-99 131t-64.5 171.5t-33.5 198.5t-10 221.5zM353 1649q0 19 8 30q20 -10 53 -10q42 0 69.5 20.5t59.5 65.5q13 17 21.5 33t12.5 28t17 50q3 26 23 41.5t45 15.5q46 0 61 -43q3 -11 8.5 -32.5t9.5 -34.5t14 -33.5t24 -40.5q9 -14 48.5 -30.5 t69.5 -16.5q21 0 32 -16.5t11 -39.5q0 -27 -11.5 -50t-31.5 -23q-46 0 -98 17t-78 40q-5 4 -20.5 17t-21.5 18.5t-15 16.5t-14 22q-47 -75 -99 -109q-33 -21 -57 -30t-59 -9q-34 0 -58 33.5t-24 69.5zM977 834q0 -262 43 -400q70 177 70 395q0 205 -6.5 314.5t-12.5 128 t-16 18.5q-31 0 -54.5 -193t-23.5 -263z" />
<glyph unicode="&#xdc;" horiz-adv-x="1298" d="M47 741q0 188 49 366.5t140 319.5q31 25 45 25q16 0 16 -27q0 -22 -27 -120q-67 -234 -67 -478q0 -86 4 -160t15.5 -153.5t30 -144t48.5 -123.5t70 -98.5t97 -63t126 -23.5q80 0 166.5 49.5t157.5 143.5q-56 127 -76.5 267.5t-20.5 363.5q0 54 12.5 141.5t36.5 186 t67.5 168t96.5 69.5q34 0 62.5 -16t49.5 -40.5t37 -65t26.5 -78t18 -90.5t11 -92t5.5 -94t2.5 -84.5t0.5 -74.5q0 -141 -39 -290.5t-112 -276.5q52 -98 106 -189q33 -26 33 -65q0 -33 -22 -58.5t-52 -25.5q-23 0 -47 18q-77 109 -119 178q-176 -204 -409 -204 q-106 0 -190 30t-142 86.5t-99 131t-64.5 171.5t-33.5 198.5t-10 221.5zM418 1634q0 42 25.5 69.5t66.5 27.5q35 0 61.5 -27t26.5 -64q0 -34 -26 -61t-60 -27q-38 0 -66 23.5t-28 58.5zM713 1640q0 42 25.5 69.5t66.5 27.5q35 0 61.5 -26.5t26.5 -63.5q0 -34 -26 -61 t-60 -27q-38 0 -66 23.5t-28 57.5zM977 834q0 -262 43 -400q70 177 70 395q0 205 -6.5 314.5t-12.5 128t-16 18.5q-31 0 -54.5 -193t-23.5 -263z" />
<glyph unicode="&#xdd;" horiz-adv-x="739" d="M70 698q0 201 95 396.5t247 363.5q4 4 10 9.5t8.5 7.5t6 4t7.5 2q33 0 33 -41q0 -51 -76 -170q-85 -150 -132.5 -288t-47.5 -286q0 -34 8.5 -69t34 -68t64.5 -39l22 94q8 32 20 74t37.5 119.5t53 148.5t67 150t79 136.5t89 95.5t97.5 38q29 0 51.5 -16t35.5 -47 t21.5 -61.5t11.5 -75t4 -71t1 -65.5q0 -124 -29.5 -240.5t-85 -213t-143 -161t-195.5 -79.5q-78 -341 -78 -584q0 -25 -17.5 -55.5t-43.5 -34.5q-44 13 -88.5 54.5t-44.5 78.5q0 53 32 225.5t72 331.5q-61 23 -106 60t-71 83t-38 94t-12 99zM299 1610h14q26 0 50.5 14.5 t62.5 48.5q176 158 258 158q40 0 62 -28t22 -64q0 -28 -13.5 -47t-37.5 -19q-14 0 -33 -6t-50 -20.5t-63 -30.5t-89.5 -44t-112.5 -54q-26 0 -41.5 15.5t-20 32t-8.5 44.5zM500 506q92 36 157.5 129t94 203.5t28.5 228.5q0 50 -18 102l-12 -8q-60 -55 -118.5 -199 t-89 -262.5t-42.5 -193.5z" />
<glyph unicode="&#xde;" horiz-adv-x="952" d="M20 567q0 26 13 51t28 33l7 2q14 0 14 -20q0 -8 2 -10q20 -40 70 -58q8 115 8 256q0 305 -58 545q0 2 -3.5 9t-6.5 7q-2 -6 -2 -12q-1 -2 -2 -5t-1.5 -5t-2 -5t-2.5 -4.5t-2 -4t-2.5 -4t-3.5 -3t-4 -2.5t-4 -1.5t-5 -0.5q-32 22 -32 68q0 34 23.5 59t66.5 25 q63 0 90.5 -29.5t40.5 -81.5q35 -154 45 -237q38 44 112 69t136 25q102 0 176.5 -38.5t117 -107t62 -151.5t19.5 -184q0 -110 -38 -193t-104 -130t-146 -70t-173 -23q-78 0 -168 20q-23 -194 -66 -409q-8 -31 -35 -31q-54 0 -81 35t-27 82v12q38 213 57 375q-49 32 -96 86 q-23 30 -23 61zM307 504q102 -21 152 -21q78 0 133.5 12t99 41t65 83.5t21.5 134.5q0 51 -4.5 91t-20 86t-42 76.5t-74.5 51t-113 20.5q-42 0 -78 -12t-49 -37q-41 -85 -56 -164t-24 -209l-6 -79q-1 -14 -2 -37.5t-2 -36.5z" />
<glyph unicode="&#xdf;" horiz-adv-x="716" d="M20 303q0 70 9.5 130t32.5 116.5t59.5 96t94.5 63.5t132 24q111 0 177.5 -66t66.5 -153q0 -117 -92 -141q40 -6 69.5 -16t59 -30t45.5 -56.5t16 -86.5q0 -53 -13.5 -94t-36.5 -65t-47.5 -40t-54 -23t-47 -9t-34.5 -2q-96 0 -172 64t-76 130q0 68 37.5 97.5t87.5 29.5 q92 0 215 -63q4 -4 4 -8q0 -9 -4 -13q-14 -14 -48 -27.5t-69 -13.5q-14 0 -52 25t-58 25q-64 0 -64 -52q0 -18 10 -29.5t30.5 -15.5t35.5 -5t41 -1q13 0 47 6.5t75 19t72 35t31 48.5q0 25 -25.5 46t-62.5 33t-73.5 18.5t-63.5 6.5q-38 0 -77.5 21t-39.5 53q0 55 49 55 q29 0 57 4t56 13t45.5 27.5t17.5 43.5q0 51 -38 69.5t-113 18.5q-44 0 -77.5 -28t-52 -77t-27.5 -108t-9 -127q0 -118 22 -231q2 -8 2 -25q0 -26 -15.5 -41.5t-39.5 -15.5q-37 0 -62 38.5t-35.5 101t-14 109.5t-3.5 95z" />
<glyph unicode="&#xe0;" horiz-adv-x="475" d="M16 303l4 39q8 -2 29 -2h68q95 201 153 289l99 121l6 24q6 10 22 10h13q20 0 38 -20t21 -43q3 -9 16 -49.5t24 -79t15 -62.5q1 -10 7 -50t7 -49t5.5 -42.5t5.5 -44t4.5 -39t4.5 -42t3 -38.5t2.5 -43t1 -41.5t0.5 -46.5q0 -89 -6 -114q-11 -7 -22 -7q-51 0 -93 97l-8 118 h-65q-43 0 -77.5 1t-35.5 1q-10 0 -12 -2q-14 -5 -24.5 -26t-26 -69.5t-23.5 -69.5l-22 -60q-16 -16 -50 -16q-7 0 -21.5 2.5t-19.5 3.5q-39 42 -39 100q0 73 58 176q0 27 -16 48.5t-46 25.5zM199 1016v10q0 45 37 45q16 0 43 -10l51 -25q51 -25 114.5 -52t98.5 -32l12 6 q0 -2 -2 -13t-3 -16t-4 -16t-5.5 -17t-7 -14.5t-9.5 -12.5t-11.5 -7.5t-14.5 -3.5q-49 23 -102 49t-77.5 38t-47 21.5t-35.5 10.5h-5q-4 0 -20 -8q-12 14 -12 47zM301 350q18 -2 57 -2q42 0 60 2q0 126 -29 176q-19 -5 -46.5 -65.5t-41.5 -110.5z" />
<glyph unicode="&#xe1;" horiz-adv-x="475" d="M16 303l4 39q8 -2 29 -2h68q95 201 153 289l99 121l6 24q6 10 22 10h13q20 0 38 -20t21 -43q3 -9 16 -49.5t24 -79t15 -62.5q1 -10 7 -50t7 -49t5.5 -42.5t5.5 -44t4.5 -39t4.5 -42t3 -38.5t2.5 -43t1 -41.5t0.5 -46.5q0 -89 -6 -114q-11 -7 -22 -7q-51 0 -93 97l-8 118 h-65q-43 0 -77.5 1t-35.5 1q-10 0 -12 -2q-14 -5 -24.5 -26t-26 -69.5t-23.5 -69.5l-22 -60q-16 -16 -50 -16q-7 0 -21.5 2.5t-19.5 3.5q-39 42 -39 100q0 73 58 176q0 27 -16 48.5t-46 25.5zM205 924h12q34 0 84 47q132 116 193 116q30 0 46.5 -20.5t16.5 -46.5 q0 -21 -10.5 -35t-28.5 -14q-17 0 -42 -10.5t-93 -45t-125 -61.5q-15 0 -24.5 5.5t-15.5 18t-8 21t-5 25.5zM301 350q18 -2 57 -2q42 0 60 2q0 126 -29 176q-19 -5 -46.5 -65.5t-41.5 -110.5z" />
<glyph unicode="&#xe2;" horiz-adv-x="475" d="M16 303l4 39q8 -2 29 -2h68q95 201 153 289l99 121l6 24q6 10 22 10h13q20 0 38 -20t21 -43q3 -9 16 -49.5t24 -79t15 -62.5q1 -10 7 -50t7 -49t5.5 -42.5t5.5 -44t4.5 -39t4.5 -42t3 -38.5t2.5 -43t1 -41.5t0.5 -46.5q0 -89 -6 -114q-11 -7 -22 -7q-51 0 -93 97l-8 118 h-65q-43 0 -77.5 1t-35.5 1q-10 0 -12 -2q-14 -5 -24.5 -26t-26 -69.5t-23.5 -69.5l-22 -60q-16 -16 -50 -16q-7 0 -21.5 2.5t-19.5 3.5q-39 42 -39 100q0 73 58 176q0 27 -16 48.5t-46 25.5zM164 907q0 14 6 23q16 -8 41 -8q31 0 50.5 15t45.5 50q18 22 39 82 q1 20 15.5 31.5t33.5 11.5q36 0 47 -33q2 -8 6 -23.5t7 -25t10 -25t18 -30.5q8 -11 38 -24t52 -13q15 0 23 -11.5t8 -29.5q0 -20 -8.5 -37.5t-22.5 -17.5q-35 0 -73.5 12.5t-59.5 30.5q-5 4 -15 12.5t-15.5 13.5t-12 13t-10.5 16q-31 -52 -74 -82q-47 -29 -88 -29 q-26 0 -43.5 25.5t-17.5 52.5zM301 350q18 -2 57 -2q42 0 60 2q0 126 -29 176q-19 -5 -46.5 -65.5t-41.5 -110.5z" />
<glyph unicode="&#xe3;" horiz-adv-x="475" d="M16 303l4 39q8 -2 29 -2h68q95 201 153 289l99 121l6 24q6 10 22 10h13q20 0 38 -20t21 -43q3 -9 16 -49.5t24 -79t15 -62.5q1 -10 7 -50t7 -49t5.5 -42.5t5.5 -44t4.5 -39t4.5 -42t3 -38.5t2.5 -43t1 -41.5t0.5 -46.5q0 -89 -6 -114q-11 -7 -22 -7q-51 0 -93 97l-8 118 h-65q-43 0 -77.5 1t-35.5 1q-10 0 -12 -2q-14 -5 -24.5 -26t-26 -69.5t-23.5 -69.5l-22 -60q-16 -16 -50 -16q-7 0 -21.5 2.5t-19.5 3.5q-39 42 -39 100q0 73 58 176q0 27 -16 48.5t-46 25.5zM182 903q24 174 135 174q12 0 49.5 -34.5t77.5 -68.5t60 -34q30 0 62 29t32 65 v17q39 -22 39 -62q0 -65 -37 -109t-90 -44q-26 0 -69 28.5t-80 57t-50 28.5q-33 0 -51 -25t-37 -85q-41 33 -41 63zM301 350q18 -2 57 -2q42 0 60 2q0 126 -29 176q-19 -5 -46.5 -65.5t-41.5 -110.5z" />
<glyph unicode="&#xe4;" horiz-adv-x="475" d="M16 303l4 39q8 -2 29 -2h68q95 201 153 289l99 121l6 24q6 10 22 10h13q20 0 38 -20t21 -43q3 -9 16 -49.5t24 -79t15 -62.5q1 -10 7 -50t7 -49t5.5 -42.5t5.5 -44t4.5 -39t4.5 -42t3 -38.5t2.5 -43t1 -41.5t0.5 -46.5q0 -89 -6 -114q-11 -7 -22 -7q-51 0 -93 97l-8 118 h-65q-43 0 -77.5 1t-35.5 1q-10 0 -12 -2q-14 -5 -24.5 -26t-26 -69.5t-23.5 -69.5l-22 -60q-16 -16 -50 -16q-7 0 -21.5 2.5t-19.5 3.5q-39 42 -39 100q0 73 58 176q0 27 -16 48.5t-46 25.5zM236 938q0 31 19.5 51.5t49.5 20.5q26 0 46 -20t20 -48q0 -25 -19.5 -45 t-44.5 -20q-28 0 -49.5 17.5t-21.5 43.5zM301 350q18 -2 57 -2q42 0 60 2q0 126 -29 176q-19 -5 -46.5 -65.5t-41.5 -110.5zM457 942q0 32 19 53t50 21q27 0 46.5 -20.5t19.5 -49.5q0 -25 -19.5 -45t-44.5 -20q-28 0 -49.5 17.5t-21.5 43.5z" />
<glyph unicode="&#xe5;" horiz-adv-x="475" d="M16 303l4 39q8 -2 29 -2h68q95 201 153 289l99 121l6 24q6 10 22 10h13q20 0 38 -20t21 -43q3 -9 16 -49.5t24 -79t15 -62.5q1 -10 7 -50t7 -49t5.5 -42.5t5.5 -44t4.5 -39t4.5 -42t3 -38.5t2.5 -43t1 -41.5t0.5 -46.5q0 -89 -6 -114q-11 -7 -22 -7q-51 0 -93 97l-8 118 h-65q-43 0 -77.5 1t-35.5 1q-10 0 -12 -2q-14 -5 -24.5 -26t-26 -69.5t-23.5 -69.5l-22 -60q-16 -16 -50 -16q-7 0 -21.5 2.5t-19.5 3.5q-39 42 -39 100q0 73 58 176q0 27 -16 48.5t-46 25.5zM219 1049q0 29 6.5 56t23 57t51.5 50.5t85 26.5q17 12 55 12q65 0 109.5 -63.5 t44.5 -138.5q0 -73 -59 -124t-129 -51q-91 0 -139 48.5t-48 126.5zM301 350q18 -2 57 -2q42 0 60 2q0 126 -29 176q-19 -5 -46.5 -65.5t-41.5 -110.5zM303 1063q0 -45 27 -73.5t71 -28.5q37 0 73 31.5t36 72.5q0 42 -24 72t-54 30q-16 0 -22 -6l-45 -37q2 22 6 35l-4 -2 q-33 -14 -48.5 -33t-15.5 -61z" />
<glyph unicode="&#xe6;" horiz-adv-x="993" d="M12 94q0 67 49 152q-12 39 -43 61v25q21 8 56 8h18q55 115 152 262q7 11 25.5 34.5t33 44t16.5 30.5l5 16q16 16 45 16q10 0 14 -4q2 -1 12.5 -4.5t16 -8t8.5 -11.5q6 0 165.5 3t274.5 13h17q22 0 32 -8q62 -43 68 -119q-15 -11 -35 -16q-46 -4 -186 -10t-166 -9l-29 -2 v-22q0 -47 4 -78q126 0 285 -8q10 -40 10 -51q0 -28 -14 -50q-41 -16 -295 -16v-135q1 0 16.5 -2.5t43.5 -5t59 -2.5q56 0 139 12h10q15 0 35 -4q10 -3 22.5 -18t12.5 -25q0 -23 -2 -43q-123 -111 -383 -111h-2q-8 -2 -19 -2q-56 0 -86 70l-10 110l-6 9q-164 0 -166 -2 q-13 -16 -61 -138l-21 -53q-11 -14 -43 -14q-11 0 -39 4q-39 45 -39 102zM272 342q32 -4 52 -4q17 0 49 4q0 21 -2 37q-2 18 -19 100q-4 13 -8 17q-6 -6 -13 -19.5t-9 -15.5q-42 -94 -46 -107z" />
<glyph unicode="&#xe7;" horiz-adv-x="620" d="M31 274q0 65 19.5 129.5t57.5 121.5t91 101t125 69.5t153 25.5q168 0 168 -113q0 -19 -10 -61q-47 -19 -70 -19q-61 0 -104 64q-139 -22 -210 -113t-71 -211q0 -69 42.5 -106t142.5 -37q23 0 95.5 27.5t117.5 27.5q75 0 75 -67q0 -100 -252 -113q-4 -9 -10.5 -18 t-16.5 -20.5t-14 -16.5q80 -88 80 -160q0 -19 -4 -31q-9 -39 -37 -58.5t-67 -19.5q-69 0 -119 50q-16 16 -16 41q0 19 10 35t24 22q4 -29 24.5 -43t47.5 -14q18 0 33 6q4 12 4 16q0 16 -10 35t-19 29.5t-30 31t-25 25.5q-12 12 -12 33q0 22 12 34l25 25q-250 21 -250 272z " />
<glyph unicode="&#xe8;" horiz-adv-x="548" d="M23 133q0 13 2.5 28.5t9 36t11 33.5t14.5 39t14 37q-1 4 -9 22.5t-8 30.5q0 9 5 23.5t6 17.5q42 16 53 17l49 112q-5 3 -20.5 10t-23.5 11t-21.5 11.5t-20.5 13.5t-15.5 13.5t-12 16t-3.5 17.5q0 16 12.5 22t40.5 8q25 1 141.5 21t213.5 20q34 0 84 -14q1 -2 22.5 -25.5 t32 -41t10.5 -33.5q0 -14 -39 -28.5t-71 -16.5q-33 -2 -164 -7q-21 0 -31 -2q-24 -24 -24 -86q0 -20 18 -20h152l28 -4q13 -18 13 -60q0 -46 -23 -49q-111 -6 -231 -6q-9 0 -13 -8q-13 -56 -49 -137q3 0 29.5 5.5t79 13.5t110.5 13q50 5 68 5t34.5 -20.5t16.5 -41.5 q0 -24 -12 -31q-178 -139 -316 -139q-80 0 -121.5 50t-41.5 122zM154 928v10q0 45 36 45q16 0 43 -10l51 -25q51 -25 115 -52t99 -32l12 6q0 -2 -2 -13t-3 -16t-4 -16t-5.5 -17t-7 -14.5t-9.5 -12.5t-11.5 -7.5t-14.5 -3.5q-49 23 -102.5 49t-78 38t-47 21.5t-35.5 10.5h-4 q-4 0 -20 -8q-12 14 -12 47z" />
<glyph unicode="&#xe9;" horiz-adv-x="548" d="M23 133q0 13 2.5 28.5t9 36t11 33.5t14.5 39t14 37q-1 4 -9 22.5t-8 30.5q0 9 5 23.5t6 17.5q42 16 53 17l49 112q-5 3 -20.5 10t-23.5 11t-21.5 11.5t-20.5 13.5t-15.5 13.5t-12 16t-3.5 17.5q0 16 12.5 22t40.5 8q25 1 141.5 21t213.5 20q34 0 84 -14q1 -2 22.5 -25.5 t32 -41t10.5 -33.5q0 -14 -39 -28.5t-71 -16.5q-33 -2 -164 -7q-21 0 -31 -2q-24 -24 -24 -86q0 -20 18 -20h152l28 -4q13 -18 13 -60q0 -46 -23 -49q-111 -6 -231 -6q-9 0 -13 -8q-13 -56 -49 -137q3 0 29.5 5.5t79 13.5t110.5 13q50 5 68 5t34.5 -20.5t16.5 -41.5 q0 -24 -12 -31q-178 -139 -316 -139q-80 0 -121.5 50t-41.5 122zM193 809h12q34 0 84 47q133 117 192 117q30 0 47 -21t17 -47q0 -21 -10.5 -35t-28.5 -14q-17 0 -42 -10.5t-93 -45t-125 -61.5q-15 0 -24.5 5.5t-15.5 18t-8 21t-5 25.5z" />
<glyph unicode="&#xea;" horiz-adv-x="548" d="M23 133q0 13 2.5 28.5t9 36t11 33.5t14.5 39t14 37q-1 4 -9 22.5t-8 30.5q0 9 5 23.5t6 17.5q42 16 53 17l49 112q-5 3 -20.5 10t-23.5 11t-21.5 11.5t-20.5 13.5t-15.5 13.5t-12 16t-3.5 17.5q0 16 12.5 22t40.5 8q25 1 141.5 21t213.5 20q34 0 84 -14q1 -2 22.5 -25.5 t32 -41t10.5 -33.5q0 -14 -39 -28.5t-71 -16.5q-33 -2 -164 -7q-21 0 -31 -2q-24 -24 -24 -86q0 -20 18 -20h152l28 -4q13 -18 13 -60q0 -46 -23 -49q-111 -6 -231 -6q-9 0 -13 -8q-13 -56 -49 -137q3 0 29.5 5.5t79 13.5t110.5 13q50 5 68 5t34.5 -20.5t16.5 -41.5 q0 -24 -12 -31q-178 -139 -316 -139q-80 0 -121.5 50t-41.5 122zM129 836q0 13 6 22q16 -8 41 -8q31 0 50.5 15t45.5 50q18 22 39 82q1 20 15.5 31.5t33.5 11.5q37 0 48 -32q2 -8 6 -23.5t7 -25.5t10 -25.5t18 -30.5q8 -11 38 -24t52 -13q30 0 30 -41q0 -20 -8 -37.5 t-22 -17.5q-35 0 -73.5 12.5t-59.5 30.5q-4 4 -19 15.5t-22.5 20.5t-12.5 19q-31 -53 -73 -82q-45 -28 -89 -28q-26 0 -43.5 25.5t-17.5 52.5z" />
<glyph unicode="&#xeb;" horiz-adv-x="548" d="M23 133q0 13 2.5 28.5t9 36t11 33.5t14.5 39t14 37q-1 4 -9 22.5t-8 30.5q0 9 5 23.5t6 17.5q42 16 53 17l49 112q-5 3 -20.5 10t-23.5 11t-21.5 11.5t-20.5 13.5t-15.5 13.5t-12 16t-3.5 17.5q0 16 12.5 22t40.5 8q25 1 141.5 21t213.5 20q34 0 84 -14q1 -2 22.5 -25.5 t32 -41t10.5 -33.5q0 -14 -39 -28.5t-71 -16.5q-33 -2 -164 -7q-21 0 -31 -2q-24 -24 -24 -86q0 -20 18 -20h152l28 -4q13 -18 13 -60q0 -46 -23 -49q-111 -6 -231 -6q-9 0 -13 -8q-13 -56 -49 -137q3 0 29.5 5.5t79 13.5t110.5 13q50 5 68 5t34.5 -20.5t16.5 -41.5 q0 -24 -12 -31q-178 -139 -316 -139q-80 0 -121.5 50t-41.5 122zM180 838q0 31 19.5 51t50.5 20q26 0 45.5 -19.5t19.5 -47.5q0 -25 -19.5 -45.5t-43.5 -20.5q-28 0 -50 18t-22 44zM401 842q0 32 19.5 52.5t50.5 20.5q27 0 46.5 -20t19.5 -49q0 -25 -19.5 -45.5t-44.5 -20.5 q-28 0 -50 18t-22 44z" />
<glyph unicode="&#xec;" horiz-adv-x="348" d="M20 877v10q0 45 39 45q18 0 41 -10l34 -17q34 -17 72.5 -35t84.5 -35.5t74 -21.5l12 6q0 -2 -2 -11t-3 -14t-3 -14t-4 -14.5t-5 -13.5t-7 -12.5t-8.5 -9.5t-10 -7t-12.5 -2q-50 23 -102.5 48t-77.5 37.5t-47.5 21.5t-35.5 10h-4q-2 0 -20 -9q-15 17 -15 48zM100 119 q0 52 6 215q12 169 35 348q3 14 13 14q36 -1 55 -16.5t25 -39t8 -67.5q2 -66 11 -239t9 -264q0 -72 -63 -72q-26 0 -58 12q-17 5 -27.5 42t-13.5 67z" />
<glyph unicode="&#xed;" horiz-adv-x="348" d="M0 786h10q20 0 37 11t49 39q128 116 193 116q30 0 46.5 -20.5t16.5 -46.5q0 -21 -10.5 -35t-28.5 -14q-17 0 -43 -11.5t-92 -45t-125 -60.5q-20 0 -32 11.5t-15 23.5t-6 32zM98 119q0 52 6 215q12 169 35 348q3 14 13 14q36 -1 55 -16.5t25 -39t8 -67.5q2 -66 11 -239 t9 -264q0 -72 -63 -72q-26 0 -58 12q-17 5 -27.5 42t-13.5 67z" />
<glyph unicode="&#xee;" horiz-adv-x="299" d="M-86 776q0 14 6 23q16 -8 41 -8q31 0 50.5 15t45.5 50q18 22 39 82q1 20 15.5 31.5t33.5 11.5q37 0 48 -33q2 -6 7 -29t12 -39.5t21 -35.5q8 -11 38.5 -24t52.5 -13q30 0 30 -41q0 -20 -8 -37.5t-22 -17.5q-35 0 -74.5 13t-59.5 30q-5 4 -15 12.5t-15.5 13.5t-12 13 t-10.5 16q-31 -52 -74 -82q-47 -29 -88 -29q-26 0 -43.5 25.5t-17.5 52.5zM61 119q0 24 7 215q13 185 34 348q3 14 13 14q36 -1 55 -16.5t25 -39t8 -67.5q2 -66 11 -239t9 -264q0 -72 -63 -72q-26 0 -58 12q-17 5 -27.5 42t-13.5 67z" />
<glyph unicode="&#xef;" horiz-adv-x="299" d="M-23 764q0 31 19.5 51.5t50.5 20.5q26 0 46 -20t20 -48q0 -25 -19.5 -45.5t-44.5 -20.5q-28 0 -50 18t-22 44zM61 119q0 24 7 215q13 185 34 348q3 14 13 14q36 -1 55 -16.5t25 -39t8 -67.5q2 -66 11 -239t9 -264q0 -72 -63 -72q-26 0 -58 12q-17 5 -27.5 42t-13.5 67z M199 768q0 32 19 53t50 21q27 0 46.5 -20.5t19.5 -49.5q0 -25 -19.5 -45t-44.5 -20q-28 0 -49.5 17.5t-21.5 43.5z" />
<glyph unicode="&#xf0;" horiz-adv-x="1001" d="M31 492q0 156 67 258t195 102q203 0 328.5 -120.5t136.5 -303.5q-25 5 -42.5 14t-23.5 15.5t-11.5 16.5t-6.5 11q-24 66 -48.5 106t-65 71.5t-100.5 45.5t-149 15q-67 0 -104 -64.5t-37 -162.5q0 -211 109.5 -338t293.5 -127q100 0 166 80.5t66 218.5q0 210 -57.5 409.5 t-172.5 364.5q-101 -72 -208 -109l-11 -2q-21 0 -38 18.5t-17 39.5q0 22 29 28q77 12 188 101q-65 77 -135 139q-25 22 -46.5 69.5t-21.5 73.5q0 13 4 15q54 0 111 -41q104 -76 191 -172q110 88 200 118q16 4 21 4q24 0 24 -26q0 -34 -26 -60q-14 -7 -30 -13.5t-24.5 -10 t-19.5 -11t-23 -18.5l-61 -55q135 -175 209 -388.5t80 -434.5q0 -97 -21 -179t-64.5 -149t-119 -105t-176.5 -38t-201 43.5t-179.5 119t-129 189t-49.5 242.5z" />
<glyph unicode="&#xf1;" horiz-adv-x="577" d="M35 166q0 63 16 172t50.5 210t74.5 101q27 0 74 -65.5t112.5 -170.5t106.5 -155q3 -3 6.5 -7.5t5 -6.5t2.5 -2q13 0 13 53q0 67 -8 123t-17 90.5t-30 102.5t-35 120l-7 25v8q0 43 21 43q23 0 59 -37.5t72.5 -98.5t63 -156.5t26.5 -195.5q0 -103 -44 -188.5t-114 -85.5 q-41 0 -88.5 59.5t-81.5 131t-63.5 131t-38.5 59.5q-8 0 -14 -23q-3 -11 -9.5 -140t-11.5 -163q0 -1 -2 -9.5t-2.5 -11.5t-3 -12t-4 -13.5t-4.5 -12.5t-6 -12t-7 -9.5t-9 -8.5t-10.5 -5t-12.5 -2q-23 0 -40 18t-25 45.5t-11.5 52t-3.5 46.5zM80 866q0 167 100 178 q20 2 100.5 -44.5t100.5 -49.5q27 -4 54.5 30t27.5 71q0 14 -6 26q24 -1 37.5 -29t13.5 -61q0 -59 -27.5 -100t-79.5 -41q-34 0 -110 37t-90 37q-35 0 -48 -30.5t-20 -96.5q-31 17 -42 32.5t-11 40.5z" />
<glyph unicode="&#xf2;" horiz-adv-x="673" d="M20 342q0 106 55.5 194.5t146 137.5t192.5 49q65 0 108 -16q51 -22 51 -41q0 -22 -43 -27h2q82 0 140 -39q25 -16 43 -68t18 -96q0 -91 -46 -171.5t-120 -135t-165.5 -87t-184.5 -36.5q-3 -9 -10 -18.5t-11 -14t-18.5 -17t-17.5 -15.5q-62 80 -62 135v4q-78 130 -78 262z M139 299q0 -34 8 -61q68 175 133.5 266.5t149.5 116.5q2 0 19.5 5.5t27.5 6.5q-32 -6 -90 -23q-121 -29 -184.5 -118.5t-63.5 -192.5zM205 958v11q0 45 37 45q16 0 43 -10l51 -25q51 -25 114.5 -52t98.5 -32l12 6q0 -2 -2 -13t-3 -16t-4 -16t-5.5 -17t-7 -14.5t-9.5 -12.5 t-11.5 -7.5t-14.5 -3.5q-49 23 -102 49t-77.5 38t-47 21.5t-35.5 10.5h-4q-3 0 -21 -9q-12 14 -12 47zM279 180h26q56 0 128.5 36.5t128.5 101t56 131.5q0 32 -21.5 48.5t-59.5 16.5q-77 0 -136 -83.5t-122 -250.5zM477 633q4 2 10 2q-6 0 -10 -2z" />
<glyph unicode="&#xf3;" horiz-adv-x="673" d="M20 342q0 106 55.5 194.5t146 137.5t192.5 49q65 0 108 -16q51 -22 51 -41q0 -22 -43 -27h2q82 0 140 -39q25 -16 43 -68t18 -96q0 -91 -46 -171.5t-120 -135t-165.5 -87t-184.5 -36.5q-3 -9 -10 -18.5t-11 -14t-18.5 -17t-17.5 -15.5q-62 80 -62 135v4q-78 130 -78 262z M139 299q0 -34 8 -61q68 175 133.5 266.5t149.5 116.5q2 0 19.5 5.5t27.5 6.5q-32 -6 -90 -23q-121 -29 -184.5 -118.5t-63.5 -192.5zM219 848h12q34 0 84 47q133 117 193 117q30 0 46.5 -21t16.5 -47q0 -21 -10.5 -35t-28.5 -14q-17 0 -42 -10.5t-93 -45t-125 -61.5 q-15 0 -24.5 5.5t-15.5 18t-8 21t-5 25.5zM279 180h26q56 0 128.5 36.5t128.5 101t56 131.5q0 32 -21.5 48.5t-59.5 16.5q-77 0 -136 -83.5t-122 -250.5zM477 633q4 2 10 2q-6 0 -10 -2z" />
<glyph unicode="&#xf4;" horiz-adv-x="673" d="M20 342q0 106 55.5 194.5t146 137.5t192.5 49q65 0 108 -16q51 -22 51 -41q0 -22 -43 -27h2q82 0 140 -39q25 -16 43 -68t18 -96q0 -91 -46 -171.5t-120 -135t-165.5 -87t-184.5 -36.5q-3 -9 -10 -18.5t-11 -14t-18.5 -17t-17.5 -15.5q-62 80 -62 135v4q-78 130 -78 262z M139 299q0 -34 8 -61q68 175 133.5 266.5t149.5 116.5q2 0 19.5 5.5t27.5 6.5q-32 -6 -90 -23q-121 -29 -184.5 -118.5t-63.5 -192.5zM170 856q0 14 6 23q18 -9 41 -9q31 0 50.5 15.5t45.5 50.5q18 22 39 82q1 20 15.5 31.5t33.5 11.5q37 0 48 -33q2 -6 7 -29t12 -39.5 t21 -35.5q8 -11 38.5 -24t52.5 -13q30 0 30 -41q0 -20 -8 -37.5t-22 -17.5q-35 0 -74.5 13t-59.5 30q-5 4 -15 12.5t-15.5 13.5t-12 13t-10.5 16q-31 -52 -74 -82q-47 -29 -88 -29q-26 0 -43.5 25.5t-17.5 52.5zM279 180h26q56 0 128.5 36.5t128.5 101t56 131.5 q0 32 -21.5 48.5t-59.5 16.5q-77 0 -136 -83.5t-122 -250.5zM477 633q4 2 10 2q-6 0 -10 -2z" />
<glyph unicode="&#xf5;" horiz-adv-x="673" d="M20 342q0 106 55.5 194.5t146 137.5t192.5 49q65 0 108 -16q51 -22 51 -41q0 -22 -43 -27h2q82 0 140 -39q25 -16 43 -68t18 -96q0 -91 -46 -171.5t-120 -135t-165.5 -87t-184.5 -36.5q-3 -9 -10 -18.5t-11 -14t-18.5 -17t-17.5 -15.5q-62 80 -62 135v4q-78 130 -78 262z M139 299q0 -34 8 -61q68 175 133.5 266.5t149.5 116.5q2 0 19.5 5.5t27.5 6.5q-32 -6 -90 -23q-121 -29 -184.5 -118.5t-63.5 -192.5zM166 846q24 174 135 174q12 0 49 -34t77 -68.5t60 -34.5q30 0 62.5 29t32.5 65v16q39 -22 39 -61q0 -65 -37 -109.5t-90 -44.5 q-26 0 -69 29t-80 57.5t-50 28.5q-33 0 -51 -25.5t-37 -85.5q-41 33 -41 64zM279 180h26q56 0 128.5 36.5t128.5 101t56 131.5q0 32 -21.5 48.5t-59.5 16.5q-77 0 -136 -83.5t-122 -250.5zM477 633q4 2 10 2q-6 0 -10 -2z" />
<glyph unicode="&#xf6;" horiz-adv-x="673" d="M20 342q0 106 55.5 194.5t146 137.5t192.5 49q65 0 108 -16q51 -22 51 -41q0 -22 -43 -27h2q82 0 140 -39q25 -16 43 -68t18 -96q0 -91 -46 -171.5t-120 -135t-165.5 -87t-184.5 -36.5q-3 -9 -10 -18.5t-11 -14t-18.5 -17t-17.5 -15.5q-62 80 -62 135v4q-78 130 -78 262z M139 299q0 -34 8 -61q68 175 133.5 266.5t149.5 116.5q2 0 19.5 5.5t27.5 6.5q-32 -6 -90 -23q-121 -29 -184.5 -118.5t-63.5 -192.5zM213 842q0 31 19.5 51t50.5 20q26 0 45.5 -19.5t19.5 -47.5q0 -25 -19 -45.5t-44 -20.5q-28 0 -50 18t-22 44zM279 180h26 q56 0 128.5 36.5t128.5 101t56 131.5q0 32 -21.5 48.5t-59.5 16.5q-77 0 -136 -83.5t-122 -250.5zM434 846q0 32 19.5 53t50.5 21q26 0 45.5 -20.5t19.5 -49.5q0 -25 -19.5 -45.5t-43.5 -20.5q-28 0 -50 18t-22 44zM477 633q4 2 10 2q-6 0 -10 -2z" />
<glyph unicode="&#xf7;" horiz-adv-x="1050" d="M104 592q0 28 15 51t39 29v-6q0 -9 26 -16l3 -1.5t3 -1t3 -0.5q107 -37 239 -37q70 0 210.5 16t217.5 17q8 2 25 2q22 0 33 -8q8 -16 8 -51t-8 -67.5t-21 -39.5q-54 10 -127 10l-367 -24q-127 0 -229 37q-35 11 -52.5 36t-17.5 54zM424 276q0 42 25.5 69.5t66.5 27.5 q35 0 61.5 -26.5t26.5 -63.5q0 -34 -26 -61t-60 -27q-38 0 -66 23.5t-28 57.5zM430 829q0 42 25.5 69.5t66.5 27.5q35 0 61.5 -26.5t26.5 -63.5q0 -34 -26 -61t-60 -27q-38 0 -66 23.5t-28 57.5z" />
<glyph unicode="&#xf8;" horiz-adv-x="716" d="M23 326q0 38 6 74.5t24.5 81.5t48.5 80t83.5 63t123.5 37q43 18 103 18q54 0 102 -25q6 9 26.5 40.5t30.5 49.5q18 9 23 9q22 0 58 -32.5t36 -53.5q0 -13 -6 -19v2q-3 -4 -9 -11t-9 -11q-1 -1 -54 -68q74 -117 74 -235q0 -67 -29.5 -126.5t-77 -100t-106.5 -64 t-117 -23.5q-81 0 -127 15q-14 -25 -67 -90l2 2q-11 -17 -29 -17q-27 0 -60.5 22t-33.5 44q0 14 8 26v-2q6 6 30 32.5t40 47.5q-94 78 -94 234zM145 346q0 -92 52 -147q83 108 254 354q-19 8 -39 8q-25 0 -45 -10l-125 -105q2 37 8 82q-53 -27 -79 -65.5t-26 -116.5z M309 141q8 -2 35 -2q76 0 148.5 64t72.5 147q0 61 -28 115q-67 -89 -228 -324z" />
<glyph unicode="&#xf9;" horiz-adv-x="600" d="M31 272q0 248 196 488q13 10 29 10q23 0 29 -41q-74 -245 -99 -389q-8 -66 -8 -92q0 -54 14 -80.5t52 -26.5q20 0 37 10.5t32.5 34t28 48.5t27 66t25 74t27 85.5t28.5 87.5q38 90 63 90q18 0 35 -49q80 -213 98 -389l10 -101v-20q0 -86 -63 -86q-15 0 -51 8 q-25 36 -25 74q0 51 -10 116l-8 82q-25 -89 -78 -153.5t-105 -91.5t-96 -27h-2q-112 3 -160 92q-26 88 -26 180zM199 903v10q0 45 37 45q16 0 43 -10l51 -25q51 -25 114.5 -51.5t98.5 -31.5l12 6l-3 -14q-2 -15 -3.5 -20t-5 -18.5t-7 -19.5t-9 -14t-13 -11.5t-16.5 -3.5 q-49 23 -102 49t-77.5 38t-47 21.5t-35.5 10.5h-5q-4 0 -20 -8q-12 14 -12 47z" />
<glyph unicode="&#xfa;" horiz-adv-x="600" d="M31 272q0 248 196 488q13 10 29 10q23 0 29 -41q-74 -245 -99 -389q-8 -66 -8 -92q0 -54 14 -80.5t52 -26.5q20 0 37 10.5t32.5 34t28 48.5t27 66t25 74t27 85.5t28.5 87.5q38 90 63 90q18 0 35 -49q80 -213 98 -389l10 -101v-20q0 -86 -63 -86q-15 0 -51 8 q-25 36 -25 74q0 51 -10 116l-8 82q-25 -89 -78 -153.5t-105 -91.5t-96 -27h-2q-112 3 -160 92q-26 88 -26 180zM182 877h13q34 0 84 47q132 116 192 116q30 0 47 -20.5t17 -46.5q0 -21 -10.5 -35t-28.5 -14q-17 0 -42 -10.5t-93 -45t-125 -61.5q-19 0 -31 12t-15.5 24 t-7.5 34z" />
<glyph unicode="&#xfb;" horiz-adv-x="600" d="M31 272q0 248 196 488q13 10 29 10q23 0 29 -41q-74 -245 -99 -389q-8 -66 -8 -92q0 -54 14 -80.5t52 -26.5q20 0 37 10.5t32.5 34t28 48.5t27 66t25 74t27 85.5t28.5 87.5q38 90 63 90q18 0 35 -49q80 -213 98 -389l10 -101v-20q0 -86 -63 -86q-15 0 -51 8 q-25 36 -25 74q0 51 -10 116l-8 82q-25 -89 -78 -153.5t-105 -91.5t-96 -27h-2q-112 3 -160 92q-26 88 -26 180zM152 889q0 13 6 22q16 -8 41 -8q31 0 50.5 15.5t45.5 50.5q18 22 39 82q1 20 15.5 31.5t33.5 11.5q36 0 47 -33q2 -8 6 -23.5t7 -25.5t10 -25.5t18 -30.5 q8 -11 38 -23.5t52 -12.5q15 0 23 -11.5t8 -29.5q0 -20 -8.5 -38t-22.5 -18q-35 0 -73.5 12.5t-59.5 30.5q-4 4 -14.5 13t-16 13.5t-12 13t-10.5 16.5q-31 -52 -74 -82q-47 -29 -88 -29q-26 0 -43.5 25.5t-17.5 52.5z" />
<glyph unicode="&#xfc;" horiz-adv-x="600" d="M31 272q0 248 196 488q13 10 29 10q23 0 29 -41q-74 -245 -99 -389q-8 -66 -8 -92q0 -54 14 -80.5t52 -26.5q20 0 37 10.5t32.5 34t28 48.5t27 66t25 74t27 85.5t28.5 87.5q38 90 63 90q18 0 35 -49q80 -213 98 -389l10 -101v-20q0 -86 -63 -86q-15 0 -51 8 q-25 36 -25 74q0 51 -10 116l-8 82q-25 -89 -78 -153.5t-105 -91.5t-96 -27h-2q-112 3 -160 92q-26 88 -26 180zM207 877q0 31 19 51t50 20q26 0 46 -20t20 -47q0 -25 -19 -45.5t-44 -20.5q-28 0 -50 18t-22 44zM428 881q0 32 19.5 52.5t50.5 20.5q27 0 46 -20t19 -49 q0 -25 -19.5 -45.5t-43.5 -20.5q-28 0 -50 18t-22 44z" />
<glyph unicode="&#xfd;" horiz-adv-x="638" d="M-76 -434q0 27 11.5 93t48 191.5t88.5 249.5q-37 79 -37 150q0 60 21.5 128.5t53.5 125.5t66.5 105.5t63 76.5t41.5 29q20 -3 26 -15.5t6 -42.5q0 -12 -2.5 -22.5t-11 -26t-15.5 -26t-26.5 -39.5t-32.5 -49q-80 -124 -80 -209q0 -20 7 -25h4q3 0 8 8q44 58 91.5 115.5 t107 120.5t114.5 102t92 39t65 -27.5t41.5 -69.5t20 -82t6.5 -75q0 -69 -32.5 -135.5t-83 -115.5t-110 -86.5t-116 -57t-98.5 -19.5q-13 0 -45 -4q-28 -82 -50 -157t-33.5 -122t-31 -132t-34.5 -144l-7 -16q-61 6 -99 52t-38 112zM268 842h13q34 0 84 47q133 117 192 117 q30 0 47 -21t17 -47q0 -21 -10.5 -35t-28.5 -14q-17 0 -42 -10.5t-93 -45t-125 -61.5q-19 0 -31 12t-15.5 24t-7.5 34zM319 154q107 12 201 94q88 76 88 201q0 13 -0.5 19t-2.5 17t-7.5 16t-15.5 5q-40 0 -144 -131q-16 -22 -62 -107.5t-57 -113.5z" />
<glyph unicode="&#xfe;" horiz-adv-x="501" d="M23 8q0 143 36 266q-2 14 -2 48q0 48 18.5 157t18.5 154q0 31 -2 47q0 29 20.5 46t53.5 17q45 0 59 -32q6 -18 6 -43q0 -32 -16 -142q61 39 135 39q119 0 119 -192q0 -66 -27.5 -128.5t-77.5 -104t-108 -42.5q-50 0 -88 15q-4 -39 -9.5 -109t-8.5 -96q-8 -19 -31 -19 q-33 0 -64.5 35t-31.5 84zM195 324q0 -119 69 -119q41 0 74 64.5t33 129.5q0 37 -15 60.5t-45 23.5q-84 0 -116 -159z" />
<glyph unicode="&#xff;" horiz-adv-x="638" d="M-76 -434q0 27 11.5 93t48 191.5t88.5 249.5q-37 79 -37 150q0 60 21.5 128.5t53.5 125.5t66.5 105.5t63 76.5t41.5 29q20 -3 26 -15.5t6 -42.5q0 -12 -2.5 -22.5t-11 -26t-15.5 -26t-26.5 -39.5t-32.5 -49q-80 -124 -80 -209q0 -20 7 -25h4q3 0 8 8q44 58 91.5 115.5 t107 120.5t114.5 102t92 39t65 -27.5t41.5 -69.5t20 -82t6.5 -75q0 -69 -32.5 -135.5t-83 -115.5t-110 -86.5t-116 -57t-98.5 -19.5q-13 0 -45 -4q-28 -82 -50 -157t-33.5 -122t-31 -132t-34.5 -144l-7 -16q-61 6 -99 52t-38 112zM229 856q0 31 19.5 51.5t50.5 20.5 q26 0 46 -20t20 -48q0 -25 -19.5 -45t-44.5 -20q-29 0 -50.5 17.5t-21.5 43.5zM319 154q107 12 201 94q88 76 88 201q0 13 -0.5 19t-2.5 17t-7.5 16t-15.5 5q-40 0 -144 -131q-16 -22 -62 -107.5t-57 -113.5zM451 860q0 32 19 53t50 21q27 0 46.5 -20.5t19.5 -49.5 q0 -25 -19.5 -45t-44.5 -20q-28 0 -49.5 17.5t-21.5 43.5z" />
<glyph unicode="&#x152;" horiz-adv-x="2148" d="M84 643q0 118 30 238.5t90 229t141 193.5t190.5 135t230.5 50q98 0 176.5 -48.5t130.5 -131.5q144 73 321.5 126.5t344.5 53.5q116 0 231 -39q42 -13 67 -62t25 -106q0 -50 -22.5 -92.5t-65.5 -42.5q-10 0 -26 3.5t-21 4.5q15 12 35 51.5t20 67.5q0 6 -2.5 10.5t-16.5 14 t-42 22.5q-76 27 -178 27q-63 0 -127 -17.5t-118.5 -49t-89 -82.5t-34.5 -112q0 -56 17.5 -105t50.5 -71q99 27 198 27q92 0 168 -23q57 -17 73.5 -35t16.5 -63q0 -59 -46 -82.5t-185 -23.5q-146 0 -237 37q-10 -3 -23 -13q-184 -58 -184 -319q0 -108 62.5 -189.5t156 -121 t198.5 -39.5q89 0 179 40.5t153 104.5q45 45 62 45q11 0 14.5 -19t3.5 -67q0 -73 -49 -109q-103 -81 -172.5 -112t-175.5 -31q-227 0 -412 121q-140 73 -186 240q-76 -152 -195 -244t-274 -92q-99 0 -184 44t-142.5 115.5t-98.5 163.5t-60 188t-19 189zM299 623 q0 -116 42.5 -229.5t123.5 -191t178 -77.5q85 0 157.5 39t122.5 103t86.5 147.5t55 170.5t22.5 175q-48 -103 -123 -167.5t-178 -64.5q-192 0 -192 226q0 135 102 271.5t252 225.5q-35 61 -81.5 95t-96.5 34q-89 0 -166.5 -42.5t-132.5 -115t-94.5 -169t-58.5 -206 t-19 -224.5zM752 725q0 -58 18 -87.5t49 -29.5q65 0 129 119.5t64 261.5q0 74 -21 156q-103 -82 -171 -198t-68 -222zM1118 1223q37 -90 37 -193q0 -36 -10 -94q14 -13 24.5 -60.5t10.5 -82.5v-19q52 52 118 80q-45 50 -76 114t-34 126q4 127 65 188q-75 -28 -135 -59z M1561 823l108 -10q44 0 103 16q-27 15 -74 15q-24 0 -48.5 -3.5t-52.5 -10t-36 -7.5z" />
<glyph unicode="&#x153;" horiz-adv-x="1128" d="M20 342q0 106 55.5 194.5t146 137.5t192.5 49q65 0 108 -16q51 -22 51 -41q0 -10 -10 -17q4 1 13 2t14 2q25 1 141 21t213 20q34 0 84 -14q2 -2 23 -25.5t32 -41t11 -33.5q0 -14 -39.5 -28.5t-71.5 -16.5q-33 -2 -164 -7q-21 0 -31 -2q-24 -24 -24 -86q0 -20 18 -20h152 l29 -4q12 -17 12 -60q0 -46 -23 -49q-111 -6 -231 -6q-8 0 -12 -8q-12 -51 -50 -137q3 0 30 5.5t79.5 13.5t110.5 13q50 5 67 5q18 0 34.5 -20.5t16.5 -41.5q0 -24 -12 -31q-178 -139 -315 -139q-68 0 -108.5 36.5t-51.5 94.5q-138 -80 -293 -86q-3 -9 -10 -18.5t-11 -14 t-18.5 -17t-17.5 -15.5q-62 80 -62 135v4q-78 130 -78 262zM139 299q0 -34 8 -61q68 175 133.5 266.5t149.5 116.5q7 1 20.5 5t18.5 5q-17 -3 -45.5 -11t-36.5 -10q-121 -29 -184.5 -118.5t-63.5 -192.5zM279 180h26q56 0 128.5 36.5t128.5 101t56 131.5q0 32 -21.5 48.5 t-59.5 16.5q-77 0 -136 -83.5t-122 -250.5z" />
<glyph unicode="&#x178;" horiz-adv-x="1087" d="M70 698q0 201 95 396.5t247 363.5q4 4 10 9.5t8.5 7.5t6 4t7.5 2q33 0 33 -41q0 -51 -76 -170q-85 -150 -132.5 -288t-47.5 -286q0 -34 8.5 -69t34 -68t64.5 -39l22 94q8 32 20 74t37.5 119.5t53 148.5t67 150t79 136.5t89 95.5t97.5 38q29 0 51.5 -16t35.5 -47 t21.5 -61.5t11.5 -75t4 -71t1 -65.5q0 -124 -29.5 -240.5t-85 -213t-143 -161t-195.5 -79.5q-78 -341 -78 -584q0 -25 -17.5 -55.5t-43.5 -34.5q-44 13 -88.5 54.5t-44.5 78.5q0 53 32 225.5t72 331.5q-61 23 -106 60t-71 83t-38 94t-12 99zM344 1634q0 42 25.5 69.5 t66.5 27.5q35 0 61.5 -27t26.5 -64q0 -34 -26 -61t-60 -27q-38 0 -66 23.5t-28 58.5zM500 506q92 36 157.5 129t94 203.5t28.5 228.5q0 50 -18 102l-12 -8q-60 -55 -118.5 -199t-89 -262.5t-42.5 -193.5zM639 1640q0 42 25.5 69.5t66.5 27.5q35 0 61.5 -26.5t26.5 -63.5 q0 -34 -26 -61t-60 -27q-38 0 -66 23.5t-28 57.5z" />
<glyph unicode="&#x2c6;" horiz-adv-x="675" d="M31 1649q0 19 8 30q20 -10 53 -10q42 0 69.5 20.5t59.5 65.5q13 17 21.5 33t12.5 28t17 50q3 26 23 41.5t45 15.5q46 0 61 -43q3 -11 8.5 -32.5t9.5 -34.5t14 -33.5t24 -40.5q9 -14 48.5 -30.5t69.5 -16.5q21 0 32 -16.5t11 -39.5q0 -27 -11.5 -50t-31.5 -23 q-46 0 -98 17t-78 40q-5 4 -20.5 17t-21.5 18.5t-15 16.5t-14 22q-47 -75 -99 -109q-33 -21 -57 -30t-59 -9q-34 0 -58 33.5t-24 69.5z" />
<glyph unicode="&#x2dc;" horiz-adv-x="825" d="M20 1640q39 232 226 232q20 0 81.5 -45.5t128.5 -91t101 -45.5q50 0 104 39t54 88q0 14 -2 20q27 -10 46 -31.5t19 -50.5q0 -89 -61 -148t-150 -59q-45 0 -116 38.5t-132.5 77t-82.5 38.5q-56 0 -86.5 -34t-61.5 -114q-34 25 -51 45t-17 41z" />
<glyph unicode="&#x2000;" horiz-adv-x="997" />
<glyph unicode="&#x2001;" horiz-adv-x="1995" />
<glyph unicode="&#x2002;" horiz-adv-x="997" />
<glyph unicode="&#x2003;" horiz-adv-x="1995" />
<glyph unicode="&#x2004;" horiz-adv-x="665" />
<glyph unicode="&#x2005;" horiz-adv-x="498" />
<glyph unicode="&#x2006;" horiz-adv-x="332" />
<glyph unicode="&#x2007;" horiz-adv-x="332" />
<glyph unicode="&#x2008;" horiz-adv-x="249" />
<glyph unicode="&#x2009;" horiz-adv-x="399" />
<glyph unicode="&#x200a;" horiz-adv-x="110" />
<glyph unicode="&#x2010;" horiz-adv-x="688" d="M72 514q0 29 8.5 51.5t23.5 28.5v-6q0 -2 0.5 -4t1.5 -3.5t3.5 -3t4.5 -2.5l6 -3t7 -3q68 -37 156 -37q47 0 139.5 16t140.5 17q4 2 15 2q15 0 20 -8q6 -15 6 -53q0 -90 -18 -105q-37 11 -82 11l-240 -25q-84 0 -149 37q-43 22 -43 90z" />
<glyph unicode="&#x2011;" horiz-adv-x="688" d="M72 514q0 29 8.5 51.5t23.5 28.5v-6q0 -2 0.5 -4t1.5 -3.5t3.5 -3t4.5 -2.5l6 -3t7 -3q68 -37 156 -37q47 0 139.5 16t140.5 17q4 2 15 2q15 0 20 -8q6 -15 6 -53q0 -90 -18 -105q-37 11 -82 11l-240 -25q-84 0 -149 37q-43 22 -43 90z" />
<glyph unicode="&#x2012;" horiz-adv-x="688" d="M72 514q0 29 8.5 51.5t23.5 28.5v-6q0 -2 0.5 -4t1.5 -3.5t3.5 -3t4.5 -2.5l6 -3t7 -3q68 -37 156 -37q47 0 139.5 16t140.5 17q4 2 15 2q15 0 20 -8q6 -15 6 -53q0 -90 -18 -105q-37 11 -82 11l-240 -25q-84 0 -149 37q-43 22 -43 90z" />
<glyph unicode="&#x2013;" horiz-adv-x="1060" d="M16 567q0 28 18.5 51t47.5 29v-6q0 -6 4.5 -8t22.5 -6q3 -1 5 -1.5t5 -1t6 -1.5q133 -37 303 -37q91 0 271.5 15.5t275.5 16.5q15 3 31 3q26 0 38 -9q11 -18 11 -53q0 -36 -9 -66.5t-26 -37.5q-66 10 -160 10l-467 -25q-163 0 -291 37q-43 11 -64.5 36t-21.5 54z" />
<glyph unicode="&#x2014;" horiz-adv-x="1611" d="M35 567q0 28 27.5 51t70.5 29l-2 -6q0 -2 0.5 -3t2.5 -2l4 -2t5.5 -2t7 -1.5t9 -1.5t10.5 -1.5t12.5 -2t14.5 -2.5q196 -37 446 -37q135 0 403 15.5t408 16.5q21 3 45 3q39 0 60 -9q14 -14 14 -53q0 -36 -13 -66.5t-38 -37.5q-100 10 -236 10q-113 0 -343.5 -12.5 t-350.5 -12.5q-242 0 -430 37q-63 11 -95 36t-32 54z" />
<glyph unicode="&#x2018;" horiz-adv-x="307" d="M20 1217q0 72 54.5 133t124.5 61q74 0 88 -57l-17 2q-47 0 -93 -33t-46 -78q0 -25 21 -33q3 -1 5 3.5t4 10t3 7.5q7 12 39 12q33 0 53 -17t20 -52q0 -41 -37 -70t-81 -29q-48 0 -93 40t-45 100z" />
<glyph unicode="&#x2019;" horiz-adv-x="307" d="M20 1124l17 -2q47 0 93 33t46 78q0 25 -20 33q-3 1 -5 -3.5t-4.5 -10.5t-3.5 -7q-7 -12 -39 -12q-33 0 -53 17.5t-20 52.5q0 41 37.5 69.5t81.5 28.5q48 0 92.5 -39.5t44.5 -99.5q0 -72 -54 -133.5t-124 -61.5q-32 0 -57 14t-32 43z" />
<glyph unicode="&#x201a;" horiz-adv-x="251" d="M35 113q0 12 3 24.5t17 26.5t37 14q66 0 102.5 -47t36.5 -92q0 -38 -24.5 -70.5t-56.5 -51t-57.5 -28.5t-33.5 -10q-9 0 -14.5 7t-5.5 16q0 24 25.5 48t25.5 34q0 16 -8.5 27.5t-19 18t-19 27.5t-8.5 56z" />
<glyph unicode="&#x201c;" horiz-adv-x="669" d="M45 1217q0 72 54 133t124 61q74 0 88 -57l-16 2q-47 0 -93 -33t-46 -78q0 -25 20 -33q3 -1 5 3.5t4 10t3 7.5q7 12 39 12q33 0 53.5 -17t20.5 -52q0 -41 -37.5 -70t-81.5 -29q-48 0 -92.5 40t-44.5 100zM369 1217q0 72 54 133t124 61q74 0 88 -57l-17 2q-47 0 -93 -33 t-46 -78q0 -25 21 -33q3 -1 5 3.5t4 10t3 7.5q7 12 39 12q33 0 53.5 -17t20.5 -52q0 -41 -37.5 -70t-81.5 -29q-48 0 -92.5 40t-44.5 100z" />
<glyph unicode="&#x201d;" horiz-adv-x="659" d="M35 1124l16 -2q47 0 93 33t46 78q0 25 -20 33q-3 1 -5 -3.5t-4 -10.5t-3 -7q-7 -12 -39 -12q-33 0 -53.5 17.5t-20.5 52.5q0 41 37.5 69.5t81.5 28.5q48 0 92.5 -39.5t44.5 -99.5q0 -72 -54 -133.5t-124 -61.5q-74 0 -88 57zM358 1124l17 -2q47 0 93 33t46 78 q0 25 -20 33q-3 1 -5 -3.5t-4.5 -10.5t-3.5 -7q-7 -12 -39 -12q-33 0 -53 17.5t-20 52.5q0 41 37 69.5t81 28.5q48 0 93 -39.5t45 -99.5q0 -72 -54.5 -133.5t-124.5 -61.5q-74 0 -88 57z" />
<glyph unicode="&#x201e;" horiz-adv-x="659" d="M35 -154l16 -2q47 0 93 33t46 78q0 25 -20 33q-3 1 -5 -3.5t-3.5 -10.5t-3.5 -7q-7 -12 -39 -12q-33 0 -53.5 17.5t-20.5 52.5q0 41 37.5 69.5t81.5 28.5q48 0 92.5 -39.5t44.5 -99.5q0 -72 -54 -133.5t-124 -61.5q-74 0 -88 57zM358 -154l17 -2q47 0 93 33t46 78 q0 25 -20 33q-3 1 -5 -3.5t-4.5 -10.5t-3.5 -7q-7 -12 -39 -12q-33 0 -53 17.5t-20 52.5q0 41 37 69.5t81 28.5q48 0 93 -39.5t45 -99.5q0 -72 -54.5 -133.5t-124.5 -61.5q-74 0 -88 57z" />
<glyph unicode="&#x2022;" horiz-adv-x="473" d="M41 739q0 87 56 147t141 60q80 0 137 -56.5t57 -137.5q0 -76 -57 -135.5t-131 -59.5q-82 0 -142.5 53.5t-60.5 128.5z" />
<glyph unicode="&#x2026;" horiz-adv-x="784" d="M29 82q0 41 26 68.5t64 27.5q37 0 63.5 -26.5t26.5 -63.5q0 -33 -25 -61q-27 -27 -63 -27q-37 0 -64.5 23.5t-27.5 58.5zM301 82q0 42 25.5 69t66.5 27q37 0 63.5 -26.5t26.5 -63.5q0 -34 -24 -61q-27 -27 -64 -27q-38 0 -66 23.5t-28 58.5zM575 82q0 41 26.5 68.5 t64.5 27.5q37 0 63.5 -26.5t26.5 -63.5q0 -33 -25 -61q-27 -27 -63 -27q-38 0 -65.5 23.5t-27.5 58.5z" />
<glyph unicode="&#x202f;" horiz-adv-x="399" />
<glyph unicode="&#x2039;" horiz-adv-x="509" d="M59 369q18 37 45.5 64.5t52.5 44t60 59.5t66 106q5 10 20.5 65t34.5 70q33 -19 52 -49t16 -63q-7 -82 -41 -148.5t-101 -148.5q94 -96 139 -164.5t50 -157.5q0 -40 -19 -58t-45 -18q-10 0 -19 6t-15.5 13.5t-13.5 22t-10.5 22t-9 23.5t-6.5 18q-21 51 -49.5 95t-61 77 t-54.5 52.5t-54 42t-37 26.5z" />
<glyph unicode="&#x203a;" horiz-adv-x="509" d="M59 47q5 89 50 157.5t139 164.5q-67 82 -101 148.5t-41 148.5q-3 33 16 63t52 49q19 -15 34.5 -70t20.5 -65q31 -63 66 -106t60 -59.5t52.5 -44t45.5 -64.5q-5 -4 -37 -26.5t-54 -42t-54.5 -52.5t-61 -77t-49.5 -95q-1 -2 -6.5 -18t-9 -23.5t-10.5 -22t-13.5 -22 t-15.5 -13.5t-19 -6q-26 0 -45 18t-19 58z" />
<glyph unicode="&#x205f;" horiz-adv-x="498" />
<glyph unicode="&#x20ac;" horiz-adv-x="1253" d="M-125 524q0 17 21 45.5t41 28.5h96q-2 18 -2 57v39q-25 -2 -94 -10q-3 0 -8 -1t-7 -1q-28 0 -28 27q0 16 22 48.5t41 33.5q30 4 86 8q10 53 26.5 102t46.5 103t69.5 99.5t98.5 87.5t130.5 71.5t168 47t208.5 17.5q44 0 93.5 -13t96.5 -37t78 -66t31 -93q0 -13 -20 -33 t-36 -20q-7 0 -26.5 20.5t-44.5 45t-73.5 44.5t-105.5 19q-247 -4 -396.5 -107t-188.5 -284q59 0 212 -1t207 -1q131 0 238 8q20 1 30.5 -14t10.5 -33q0 -15 -31 -36.5t-53 -23.5q-47 -4 -111 -4q-58 0 -225 1t-225 1h-66v-24q0 -28 4 -78h127q332 0 449 6q45 3 45 -26 q0 -15 -38.5 -45.5t-59.5 -30.5q-125 -6 -418 -6h-82q52 -161 176.5 -257t241.5 -96q72 0 157.5 17t139 33.5t141.5 46.5q43 -35 43 -74q0 -15 -8 -47q-110 -64 -238.5 -107t-244.5 -43q-132 0 -250.5 60t-207 181.5t-118.5 285.5h-131q-22 0 -30.5 6.5t-8.5 21.5z" />
<glyph unicode="&#x2122;" horiz-adv-x="1761" d="M16 1413q0 26 24.5 48t53.5 22h6q19 0 19 -21q0 -10 -6 -16q-23 -23 -23 -35q0 -8 25 -22h2q32 -27 104 -51.5t148 -37.5q79 75 185 116.5t214 41.5q88 0 88 -53q0 -57 -32 -103t-81.5 -73t-103.5 -41t-104 -14q-61 0 -107 10q-98 -170 -98 -361q0 -117 47 -217 q3 -5 8 -14t8 -14q2 -5 8 -12.5t7 -8.5q1 -2 6 -9t6 -9v2q14 -21 14 -33q0 -13 -5 -19t-21 -6q-26 0 -48 15h2q-18 9 -36 30q-56 69 -90.5 174.5t-34.5 194.5q0 155 102 317q-68 21 -192 86q-95 53 -95 113zM535 1284h8q120 0 176 59q-10 -1 -21.5 -3t-21.5 -4t-14 -3 q-70 -14 -127 -49zM819 819q0 197 35 377q7 32 11.5 51t15 55t24 59t32.5 47.5t46 37t59 12.5q37 0 65.5 -24.5t39.5 -61.5l145 -538l156 546q10 32 43.5 49t67.5 17q96 0 116 -219q0 -3 1 -10l1 -7v-448q0 -80 -10 -148q0 -7 -1 -16t-4.5 -24.5t-13 -26t-22.5 -10.5 q-26 0 -50 43.5t-24 68.5l-20 561q-21 -90 -51 -202v2q-24 -92 -39 -158q0 -2 -1 -6t-1 -6q-47 -203 -142 -203q-47 0 -67 29q-14 22 -50.5 103t-47.5 110q-40 108 -111 368q-60 -418 -80 -700q0 -15 -12.5 -29t-28.5 -14h-4q-59 0 -66 127q-12 89 -12 188z" />
<glyph unicode="&#xe000;" horiz-adv-x="737" d="M0 0v737h737v-737h-737z" />
</font>
</defs>
</svg>
